<?xml version="1.0" standalone="no"?>
<!DOCTYPE svg PUBLIC "-//W3C//DTD SVG 1.1//EN" "http://www.w3.org/Graphics/SVG/1.1/DTD/svg11.dtd" >
<svg xmlns="http://www.w3.org/2000/svg" xmlns:xlink="http://www.w3.org/1999/xlink" version="1.1">
<metadata>
Created by FontForge 20170731 at Wed May 11 12:43:43 2022
 By Aleksey,,,
Copyright (C) 2001, 2011 Hoefler &#38; Co. http://www.typography.com
</metadata>
<defs>
<font id="Gotham-BoldItalic" horiz-adv-x="1024" >
  <font-face 
    font-family="Gotham Bold"
    font-weight="400"
    font-style="italic"
    font-stretch="normal"
    units-per-em="2048"
    panose-1="2 0 0 0 0 0 0 0 0 0"
    ascent="1638"
    descent="-410"
    x-height="1098"
    cap-height="1434"
    bbox="-666 -608 2554 2083"
    underline-thickness="102"
    underline-position="-307"
    slope="-15"
    unicode-range="U+0020-FB04"
  />
<missing-glyph 
d="M0 -410v2048h1024v-2048h-1024zM102 -156l353 770l-353 770v-1540zM145 -307h734l-367 799zM512 737l367 799h-734zM922 -156v1540l-353 -770z" />
    <glyph glyph-name="f_f" unicode="ff" horiz-adv-x="1683" 
d="M47 0l223 831h-129l72 267h129l10 43q39 164 129 254q114 114 320 114q128 0 213 -30l-68 -258q-67 26 -135 26q-120 0 -154 -119l-8 -30h264l-71 -267h-260l-224 -831h-311zM889 0l223 831h-129l72 267h129l10 43q39 164 129 254q114 114 319 114q128 0 213 -30
l-67 -258q-67 26 -135 26q-120 0 -154 -119l-8 -30h264l-72 -267h-260l-223 -831h-311z" />
    <glyph glyph-name="fi" unicode="fi" horiz-adv-x="1460" 
d="M47 0l223 831h-129l72 267h129l10 43q39 164 129 254q114 114 320 114q128 0 213 -30l-68 -258q-67 26 -135 26q-120 0 -154 -119l-8 -30h264l-71 -267h-260l-224 -831h-311zM848 0l295 1098h311l-295 -1098h-311zM1167 1219l76 276h328l-76 -276h-328z" />
    <glyph glyph-name="fl" unicode="fl" horiz-adv-x="1460" 
d="M47 0l223 831h-129l72 267h129l10 43q39 164 129 254q114 114 320 114q128 0 213 -30l-68 -258q-67 26 -135 26q-120 0 -154 -119l-8 -30h264l-71 -267h-260l-224 -831h-311zM848 0l401 1495h312l-402 -1495h-311z" />
    <glyph glyph-name="f_f_i" unicode="ffi" horiz-adv-x="2301" 
d="M47 0l223 831h-129l72 267h129l10 43q39 164 129 254q114 114 320 114q128 0 213 -30l-68 -258q-67 26 -135 26q-120 0 -154 -119l-8 -30h264l-71 -267h-260l-224 -831h-311zM889 0l223 831h-129l72 267h129l10 43q39 164 129 254q114 114 319 114q128 0 213 -30
l-67 -258q-67 26 -135 26q-120 0 -154 -119l-8 -30h264l-72 -267h-260l-223 -831h-311zM1690 0l295 1098h311l-295 -1098h-311zM2009 1219l76 276h328l-76 -276h-328z" />
    <glyph glyph-name="f_f_l" unicode="ffl" horiz-adv-x="2301" 
d="M47 0l223 831h-129l72 267h129l10 43q39 164 129 254q114 114 320 114q128 0 213 -30l-68 -258q-67 26 -135 26q-120 0 -154 -119l-8 -30h264l-71 -267h-260l-224 -831h-311zM889 0l223 831h-129l72 267h129l10 43q39 164 129 254q114 114 319 114q128 0 213 -30
l-67 -258q-67 26 -135 26q-120 0 -154 -119l-8 -30h264l-72 -267h-260l-223 -831h-311zM1690 0l401 1495h311l-401 -1495h-311z" />
    <glyph glyph-name=".notdef" 
d="M0 -410v2048h1024v-2048h-1024zM102 -156l353 770l-353 770v-1540zM145 -307h734l-367 799zM512 737l367 799h-734zM922 -156v1540l-353 -770z" />
    <glyph glyph-name=".null" horiz-adv-x="0" 
 />
    <glyph glyph-name="nonmarkingreturn" horiz-adv-x="682" 
 />
    <glyph glyph-name="space" unicode=" " horiz-adv-x="614" 
 />
    <glyph glyph-name="exclam" unicode="!" horiz-adv-x="665" 
d="M229 487l146 906l12 41h365l-13 -41l-338 -906h-172zM18 0l88 328h332l-88 -328h-332z" />
    <glyph glyph-name="quotedbl" unicode="&#x22;" horiz-adv-x="1081" 
d="M203 780l172 654h348l-4 -11l-354 -643h-162zM698 780l172 654h349l-5 -11l-354 -643h-162z" />
    <glyph glyph-name="numbersign" unicode="#" horiz-adv-x="1433" 
d="M1307 569l-54 -262h-215l-106 -307h-270l106 307h-297l-106 -307h-271l107 307h-166l53 262h203l106 303h-178l53 263h215l105 299h270l-104 -299h297l104 299h271l-105 -299h166l-53 -263h-203l-107 -303h179zM664 881l-111 -320h309l111 320h-309z" />
    <glyph glyph-name="dollar" unicode="$" horiz-adv-x="1302" 
d="M860 1552h213l-43 -145q183 -50 316 -186l-213 -209q-97 90 -191 125l-92 -306q165 -61 248.5 -146.5t83.5 -233.5q0 -132 -77 -235.5t-208 -159.5t-291 -56h-2l-61 -201h-213l67 221q-263 54 -407 244l229 193q115 -130 264 -170l99 315q-64 24 -110.5 46.5t-92 55
t-74 70.5t-46 91t-17.5 118q0 127 74.5 230.5t204 162t286.5 58.5h16zM565 1016q0 -38 23.5 -64t85.5 -53l78 264q-94 -6 -140.5 -47t-46.5 -100zM858 418q0 38 -23 65.5t-77 53.5l-82 -267q86 8 134 46t48 102z" />
    <glyph glyph-name="percent" unicode="%" horiz-adv-x="1802" 
d="M123 0l688 715l690 719h266l-688 -715l-690 -719h-266zM487 709q-142 0 -228.5 87.5t-86.5 227.5q0 87 34 169.5t95 143.5q113 113 268 113q142 0 229 -87.5t87 -227.5q0 -87 -34 -170t-95 -144q-112 -112 -269 -112zM500 887q61 0 108 47q35 35 55.5 87.5t20.5 104.5
q0 67 -34 106.5t-93 39.5q-61 0 -108 -47q-35 -35 -55.5 -88t-20.5 -105q0 -67 34 -106t93 -39zM1321 -16q-142 0 -228.5 87.5t-86.5 227.5q0 87 34 169.5t95 143.5q113 113 268 113q142 0 228.5 -87.5t86.5 -227.5q0 -87 -34 -170t-95 -144q-112 -112 -268 -112zM1333 162
q62 0 109 47q35 35 55.5 87.5t20.5 104.5q0 67 -34 106.5t-93 39.5q-62 0 -109 -47q-35 -35 -55.5 -88t-20.5 -105q0 -67 34 -106t93 -39z" />
    <glyph glyph-name="ampersand" unicode="&#x26;" horiz-adv-x="1425" 
d="M1178 731l190 -133q-112 -169 -223 -289l141 -190l-231 -148l-115 158q-210 -149 -438 -149q-203 0 -329 103t-126 282q0 91 39.5 172t132.5 154.5t232 119.5q-74 132 -74 248q0 164 126.5 281.5t330.5 117.5q176 0 285.5 -97t109.5 -247q0 -55 -19 -107t-61 -105
t-120 -101t-187 -86l162 -215q92 99 174 231zM537 238q126 0 260 88l-219 303q-118 -45 -176 -110t-58 -136q0 -64 50.5 -104.5t142.5 -40.5zM653 1055q0 -72 58 -162q136 48 186.5 93.5t50.5 109.5q0 45 -34.5 80.5t-94.5 35.5q-74 0 -120 -46.5t-46 -110.5z" />
    <glyph glyph-name="quotesingle" unicode="'" horiz-adv-x="585" 
d="M203 780l172 654h348l-4 -11l-354 -643h-162z" />
    <glyph glyph-name="parenleft" unicode="(" horiz-adv-x="911" 
d="M494 -293q-181 145 -278 327.5t-97 393.5q0 200 77.5 381.5t225.5 329.5q198 198 506 321l114 -231q-212 -96 -364 -248q-120 -120 -182 -259.5t-62 -283.5q0 -266 254 -532z" />
    <glyph glyph-name="parenright" unicode=")" horiz-adv-x="911" 
d="M442 1468q182 -145 278.5 -327.5t96.5 -392.5q0 -200 -77.5 -381.5t-225.5 -329.5q-199 -199 -506 -322l-114 232q212 96 364 248q120 120 182 259t62 283q0 267 -254 533z" />
    <glyph glyph-name="asterisk" unicode="*" horiz-adv-x="880" 
d="M569 752l-161 43l94 229l-232 -94l-45 164l248 32l-197 154l121 121l152 -199l33 246l161 -43l-94 -229l232 94l45 -164l-248 -33l196 -153l-120 -121l-152 198z" />
    <glyph glyph-name="plus" unicode="+" horiz-adv-x="1310" 
d="M420 211l98 369h-371l76 282h371l98 369h291l-98 -369h370l-75 -282h-371l-98 -369h-291z" />
    <glyph glyph-name="comma" unicode="," horiz-adv-x="585" 
d="M-139 -332l-21 129q235 20 266 203h-126l88 328h331l-73 -277q-53 -199 -165.5 -288.5t-299.5 -94.5z" />
    <glyph glyph-name="hyphen" unicode="-" horiz-adv-x="843" 
d="M90 485l80 299h631l-80 -299h-631z" />
    <glyph glyph-name="period" unicode="." horiz-adv-x="585" 
d="M-20 0l88 328h331l-88 -328h-331z" />
    <glyph glyph-name="slash" unicode="/" horiz-adv-x="1085" 
d="M-276 -262l1394 1896h293l-1395 -1896h-292z" />
    <glyph glyph-name="zero" unicode="0" horiz-adv-x="1495" 
d="M895 1458q252 0 405.5 -163t153.5 -433q0 -187 -70.5 -368t-199.5 -310q-209 -209 -498 -209q-252 0 -405.5 163t-153.5 433q0 187 70.5 368t199.5 310q209 209 498 209zM711 260q124 0 229 105q88 88 139 226t51 273q0 150 -69.5 230t-190.5 80q-124 0 -229 -105
q-88 -88 -139 -226.5t-51 -273.5q0 -150 69.5 -229.5t190.5 -79.5z" />
    <glyph glyph-name="one" unicode="1" horiz-adv-x="888" 
d="M195 0l297 1110l-261 -59l-4 268l451 125h215l-387 -1444h-311z" />
    <glyph glyph-name="two" unicode="2" horiz-adv-x="1257" 
d="M-61 0l69 258l725 500q108 75 158.5 137t50.5 129q0 70 -48 108.5t-132 38.5q-89 0 -169.5 -45t-172.5 -133l-193 201q229 260 549 260q221 0 355.5 -110t134.5 -285q0 -135 -74.5 -244t-263.5 -240l-443 -303h602l-73 -272h-1075z" />
    <glyph glyph-name="three" unicode="3" horiz-adv-x="1236" 
d="M496 -25q-373 0 -531 273l234 172q61 -82 132.5 -122t178.5 -40q113 0 191.5 60.5t78.5 140.5q0 82 -74 126t-206 44h-88l-13 196l422 338h-542l73 271h969l-66 -238l-462 -352q305 -73 305 -357q0 -193 -142 -335q-83 -83 -202 -130t-258 -47z" />
    <glyph glyph-name="four" unicode="4" horiz-adv-x="1349" 
d="M645 0l82 309h-664l-30 234l989 901h307l-235 -879h192l-69 -256h-193l-82 -309h-297zM432 565h365l123 459z" />
    <glyph glyph-name="five" unicode="5" horiz-adv-x="1249" 
d="M512 -23q-154 0 -305 73.5t-225 182.5l221 187q146 -158 336 -158q125 0 207.5 65.5t82.5 157.5q0 81 -68 133t-198 52q-88 0 -192 -45l-160 129l223 680h869l-76 -277h-584l-82 -244q80 17 146 17q198 0 322 -112t124 -298q0 -204 -152 -356q-187 -187 -489 -187z" />
    <glyph glyph-name="six" unicode="6" horiz-adv-x="1316" 
d="M641 -25q-115 0 -212 33.5t-161 97.5q-147 147 -147 404q0 209 72.5 403.5t207.5 329.5q101 101 234 158t287 57q261 0 442 -166l-182 -227q-124 111 -287 111q-166 0 -279 -113q-98 -98 -147 -252q49 49 141.5 85t188.5 36q122 0 219.5 -45.5t157 -138t59.5 -216.5
q0 -104 -43.5 -202.5t-120.5 -175.5q-84 -84 -195 -131.5t-235 -47.5zM641 242q123 0 205 82q72 72 72 165q0 87 -60 138t-156 51q-65 0 -121.5 -22.5t-91.5 -57.5q-69 -69 -69 -166q0 -76 53 -129q61 -61 168 -61z" />
    <glyph glyph-name="seven" unicode="7" horiz-adv-x="1247" 
d="M18 0l891 1161h-659l74 273h1032l-66 -238l-901 -1196h-371z" />
    <glyph glyph-name="eight" unicode="8" horiz-adv-x="1355" 
d="M614 -20q-148 0 -272.5 49t-200 143t-75.5 213q0 156 99 253t267 138q-83 42 -128.5 116t-45.5 161q0 72 35 141.5t99.5 128.5t170 95t234.5 36q223 0 365.5 -108.5t142.5 -276.5q0 -134 -83.5 -228.5t-230.5 -129.5q101 -38 160 -116.5t59 -188.5q0 -82 -41 -158
t-115.5 -136t-189 -96t-250.5 -36zM631 233q117 0 194 52t78 137q2 77 -70 126.5t-190 49.5q-117 0 -192.5 -53t-77.5 -133q-2 -77 70 -128t188 -51zM774 852q99 0 166.5 51.5t69.5 126.5q2 71 -59 118.5t-169 47.5q-97 0 -164.5 -50.5t-68.5 -125.5q-2 -72 60.5 -120
t164.5 -48z" />
    <glyph glyph-name="nine" unicode="9" horiz-adv-x="1316" 
d="M498 -25q-266 0 -471 183l184 227q74 -63 145.5 -95t157.5 -32q164 0 281 117q94 94 139 231q-49 -49 -139.5 -84t-186.5 -35q-189 0 -312.5 106.5t-123.5 299.5q0 112 42.5 212t119.5 177q176 176 432 176q108 0 210.5 -33.5t164.5 -95.5q74 -74 110.5 -177t36.5 -257
q0 -196 -75 -383t-212 -324q-213 -213 -503 -213zM709 741q126 0 206 80q72 72 72 174q0 84 -51 135q-62 62 -168 62q-125 0 -205 -80q-74 -74 -74 -178q0 -91 61 -142t159 -51z" />
    <glyph glyph-name="colon" unicode=":" horiz-adv-x="606" 
d="M-10 0l88 328h332l-88 -328h-332zM197 770l88 328h331l-88 -328h-331z" />
    <glyph glyph-name="semicolon" unicode=";" horiz-adv-x="606" 
d="M-129 -332l-21 129q236 20 267 203h-127l88 328h332l-74 -277q-53 -199 -165.5 -288.5t-299.5 -94.5zM197 770l88 328h331l-88 -328h-331z" />
    <glyph glyph-name="less" unicode="&#x3c;" horiz-adv-x="1310" 
d="M1022 145l-875 435l76 282l1108 434l-84 -303l-768 -284l617 -285z" />
    <glyph glyph-name="equal" unicode="=" horiz-adv-x="1310" 
d="M111 313l75 283h971l-76 -283h-970zM254 846l76 282h970l-75 -282h-971z" />
    <glyph glyph-name="greater" unicode="&#x3e;" horiz-adv-x="1310" 
d="M76 145l84 304l768 284l-617 285l74 278l875 -434l-76 -282z" />
    <glyph glyph-name="question" unicode="?" horiz-adv-x="1114" 
d="M362 487l41 332l13 10q198 14 303.5 67t105.5 142q0 60 -42.5 93.5t-127.5 33.5q-73 0 -150 -32t-143 -89l-163 207q96 98 227.5 149.5t271.5 51.5q208 0 332.5 -109.5t124.5 -263.5q0 -180 -133 -294t-391 -154l-60 -144h-209zM176 0l88 328h332l-88 -328h-332z" />
    <glyph glyph-name="at" unicode="@" horiz-adv-x="2007" 
d="M965 -317q-186 0 -344.5 59t-270 163t-174.5 252t-63 320q0 156 49.5 304.5t141 271t213.5 215.5t275.5 144.5t317.5 51.5q151 0 283.5 -37t231 -103.5t170 -154.5t108 -192.5t36.5 -216.5q0 -156 -41 -279t-110.5 -197.5t-154.5 -112.5t-179 -38q-102 0 -177 42.5
t-108 115.5q-156 -160 -327 -160q-141 0 -235.5 92.5t-94.5 253.5q0 120 44.5 227t117 180t165 115.5t187.5 42.5q180 0 268 -143l39 127l228 -63l-154 -484q-25 -82 -25 -123q0 -61 37 -94t99 -33q56 0 114 35.5t108 99.5t81.5 168t31.5 228q0 125 -52 237.5t-146 198
t-235.5 136t-309.5 50.5q-188 0 -358.5 -74t-291.5 -197.5t-192 -289.5t-71 -344q0 -156 56.5 -289t157 -226.5t243.5 -146.5t311 -53q210 0 419 93l33 -72q-214 -100 -452 -100zM944 338q107 0 195 97t88 229q0 76 -49.5 123t-128.5 47q-106 0 -191.5 -95t-85.5 -225
q0 -82 46 -129t126 -47z" />
    <glyph glyph-name="A" unicode="A" horiz-adv-x="1566" 
d="M-117 0l1002 1444h303l227 -1444h-323l-45 322h-607l-217 -322h-340zM629 600h381l-66 473z" />
    <glyph glyph-name="B" unicode="B" horiz-adv-x="1468" 
d="M25 0l385 1434h557q241 0 363 -99t122 -254q0 -139 -82.5 -230.5t-224.5 -123.5q201 -93 201 -291q0 -197 -162.5 -316.5t-454.5 -119.5h-704zM406 276h370q118 0 187 49t69 132q0 64 -50.5 99.5t-145.5 35.5h-347zM561 854h318q124 0 191 43.5t67 130.5q0 59 -49.5 94
t-149.5 35h-297z" />
    <glyph glyph-name="C" unicode="C" horiz-adv-x="1486" 
d="M813 -25q-297 0 -486.5 171t-189.5 454q0 168 67 324t187 276q121 121 281 189.5t338 68.5q386 0 573 -305l-260 -182q-45 64 -90.5 104.5t-112 66t-149.5 25.5q-189 0 -336 -147q-79 -79 -124.5 -185t-45.5 -223q0 -154 97.5 -250t252.5 -96q97 0 172 34.5t164 107.5
l205 -213q-113 -105 -243.5 -162.5t-299.5 -57.5z" />
    <glyph glyph-name="D" unicode="D" horiz-adv-x="1591" 
d="M25 0l385 1434h417q377 0 562 -185q155 -155 155 -420q0 -330 -235 -565q-264 -264 -752 -264h-532zM1133 1044q-105 105 -330 105h-154l-233 -864h178q145 0 269.5 44.5t209.5 129.5q144 144 144 358q0 143 -84 227z" />
    <glyph glyph-name="E" unicode="E" horiz-adv-x="1361" 
d="M25 0l385 1434h1071l-76 -281h-758l-78 -293h666l-76 -276h-665l-82 -303h770l-76 -281h-1081z" />
    <glyph glyph-name="F" unicode="F" horiz-adv-x="1357" 
d="M25 0l385 1434h1091l-78 -287h-776l-82 -305h684l-75 -287h-685l-149 -555h-315z" />
    <glyph glyph-name="G" unicode="G" horiz-adv-x="1597" 
d="M809 -25q-100 0 -196 23t-183 73.5t-152.5 122t-104 176t-38.5 228.5q0 166 66.5 321.5t187.5 276.5q123 123 287.5 192.5t353.5 69.5q211 0 356.5 -69t229.5 -179l-234 -206q-151 165 -376 165q-108 0 -205.5 -41.5t-171.5 -115.5q-77 -77 -121.5 -183t-44.5 -221
q0 -162 103.5 -253t262.5 -91q137 0 256 55l68 234h-317l73 272h623l-203 -714q-240 -136 -520 -136z" />
    <glyph glyph-name="H" unicode="H" horiz-adv-x="1548" 
d="M25 0l385 1434h315l-152 -568h574l151 568h316l-385 -1434h-316l156 575h-573l-156 -575h-315z" />
    <glyph glyph-name="I" unicode="I" horiz-adv-x="688" 
d="M39 0l385 1434h315l-385 -1434h-315z" />
    <glyph glyph-name="J" unicode="J" horiz-adv-x="1177" 
d="M385 -20q-141 0 -265 61t-200 178l223 195q60 -75 121.5 -108.5t136.5 -33.5q113 0 193 80q36 36 62 95.5t63 197.5l211 789h323l-231 -865q-45 -173 -89.5 -267t-119.5 -169q-153 -153 -428 -153z" />
    <glyph glyph-name="K" unicode="K" horiz-adv-x="1488" 
d="M25 0l385 1434h315l-170 -635l709 635h426l-699 -600l338 -834h-346l-242 645l-297 -254l-104 -391h-315z" />
    <glyph glyph-name="L" unicode="L" horiz-adv-x="1282" 
d="M25 0l385 1434h315l-307 -1147h715l-78 -287h-1030z" />
    <glyph glyph-name="M" unicode="M" horiz-adv-x="1765" 
d="M25 0l385 1434h321l207 -607l535 607h358l-385 -1434h-313l249 936l-561 -612h-8l-229 606l-250 -930h-309z" />
    <glyph glyph-name="N" unicode="N" horiz-adv-x="1609" 
d="M25 0l385 1434h290l418 -912l246 912h311l-385 -1434h-268l-434 940l-252 -940h-311z" />
    <glyph glyph-name="O" unicode="O" horiz-adv-x="1703" 
d="M999 1458q145 0 268.5 -49t208 -133.5t132 -201.5t47.5 -251q0 -164 -66 -321t-186 -277q-118 -118 -273 -184t-337 -66q-145 0 -268.5 49t-208 133.5t-132 201.5t-47.5 251q0 164 66 321t186 277q118 118 273 184t337 66zM829 266q190 0 332 142q77 77 121.5 184
t44.5 211q0 164 -95.5 264t-268.5 100q-191 0 -332 -141q-77 -77 -121.5 -184t-44.5 -211q0 -164 95.5 -264.5t268.5 -100.5z" />
    <glyph glyph-name="P" unicode="P" horiz-adv-x="1390" 
d="M25 0l385 1434h454q156 0 265 -34.5t186 -111.5q110 -110 110 -295q0 -219 -145 -364q-95 -95 -237.5 -145t-313.5 -50h-272l-117 -434h-315zM1051 1087q-62 62 -199 62h-205l-117 -438h215q191 0 285 94q66 66 66 162q0 75 -45 120z" />
    <glyph glyph-name="Q" unicode="Q" horiz-adv-x="1703" 
d="M999 1458q145 0 268.5 -49t208 -133.5t132 -201.5t47.5 -251q0 -161 -64 -316t-180 -274l115 -151l-260 -172l-95 149q-176 -84 -378 -84q-145 0 -268.5 49t-208 133.5t-132 201.5t-47.5 251q0 164 66 321t186 277q118 118 273 184t337 66zM829 266q100 0 181 37
l-185 250l260 174l146 -233q96 148 96 309q0 164 -95.5 264t-268.5 100q-191 0 -332 -141q-77 -77 -121.5 -184t-44.5 -211q0 -164 95.5 -264.5t268.5 -100.5z" />
    <glyph glyph-name="R" unicode="R" horiz-adv-x="1488" 
d="M920 0l-222 459h-235l-123 -459h-315l385 1434h522q310 0 454 -144q111 -111 111 -289q0 -208 -131 -339q-126 -126 -332 -173l244 -489h-358zM539 737h280q197 0 289 92q59 59 59 146q0 70 -45 115q-59 59 -209 59h-264z" />
    <glyph glyph-name="S" unicode="S" horiz-adv-x="1302" 
d="M604 -20q-419 0 -624 264l237 200q87 -95 184 -141.5t217 -46.5q96 0 158 41.5t62 108.5q0 53 -50 91.5t-194 96.5q-62 25 -109 49t-95 59t-78.5 73.5t-50 91.5t-19.5 114q0 182 127 309q78 78 194 121t248 43q337 0 537 -213l-218 -217q-87 79 -165.5 116.5t-178.5 37.5
q-95 0 -151.5 -44t-56.5 -102q0 -55 49 -90t202 -98q64 -26 112 -51t94 -59.5t75 -73t46.5 -90.5t17.5 -113q0 -184 -130 -314q-80 -80 -195 -121.5t-245 -41.5z" />
    <glyph glyph-name="T" unicode="T" horiz-adv-x="1269" 
d="M326 0l307 1143h-436l77 291h1188l-78 -291h-436l-307 -1143h-315z" />
    <glyph glyph-name="U" unicode="U" horiz-adv-x="1564" 
d="M702 -23q-250 0 -393 128t-143 356q0 107 35 229l198 744h316l-207 -772q-23 -81 -23 -156q0 -108 65.5 -173t184.5 -65q141 0 234 90q93 93 139 267l217 809h315l-229 -854q-74 -279 -221 -426q-177 -177 -488 -177z" />
    <glyph glyph-name="V" unicode="V" horiz-adv-x="1482" 
d="M442 -10l-186 1444h338l98 -1000l635 1000h354l-960 -1444h-279z" />
    <glyph glyph-name="W" unicode="W" horiz-adv-x="2269" 
d="M369 -10l-103 1444h328l37 -971l577 975h271l65 -975l557 971h357l-877 -1444h-293l-69 919l-562 -919h-288z" />
    <glyph glyph-name="X" unicode="X" horiz-adv-x="1433" 
d="M-104 0l692 743l-307 691h354l180 -461l402 461h403l-674 -725l318 -709h-355l-192 481l-418 -481h-403z" />
    <glyph glyph-name="Y" unicode="Y" horiz-adv-x="1331" 
d="M346 0l152 565l-297 869h350l168 -594l491 594h381l-784 -897l-145 -537h-316z" />
    <glyph glyph-name="Z" unicode="Z" horiz-adv-x="1411" 
d="M-39 0l64 240l1007 917h-737l76 277h1163l-66 -240l-1007 -918h768l-74 -276h-1194z" />
    <glyph glyph-name="bracketleft" unicode="[" horiz-adv-x="952" 
d="M-20 -266l456 1700h662l-66 -244h-362l-326 -1213h363l-66 -243h-661z" />
    <glyph glyph-name="backslash" unicode="\" horiz-adv-x="1085" 
d="M668 -262l-426 1896h258l426 -1896h-258z" />
    <glyph glyph-name="bracketright" unicode="]" horiz-adv-x="952" 
d="M993 1434l-456 -1700h-662l66 243h362l326 1213h-363l66 244h661z" />
    <glyph glyph-name="asciicircum" unicode="^" 
d="M172 1010l418 424h213l188 -424h-203l-122 239l-250 -239h-244z" />
    <glyph glyph-name="underscore" unicode="_" horiz-adv-x="1228" 
d="M-236 -328l64 238h1237l-64 -238h-1237z" />
    <glyph glyph-name="grave" unicode="`" 
d="M709 1219l-195 245l274 117l134 -362h-213z" />
    <glyph glyph-name="a" unicode="a" horiz-adv-x="1204" 
d="M334 -20q-142 0 -231 82.5t-89 211.5q0 160 105 265q131 131 368 131q155 0 310 -49l4 14q12 50 12 82q0 129 -207 129q-148 0 -293 -60l-49 246q188 78 408 78q219 0 331.5 -87.5t112.5 -250.5q0 -72 -24 -166l-162 -606h-301l33 127q-138 -147 -328 -147zM467 193
q94 0 171.5 64.5t104.5 156.5l9 28q-103 39 -205 39q-117 0 -178 -61q-45 -45 -45 -111q0 -52 39 -84t104 -32z" />
    <glyph glyph-name="b" unicode="b" horiz-adv-x="1380" 
d="M690 -20q-123 0 -204.5 46t-139.5 134l-43 -160h-311l401 1495h312l-140 -516q75 70 148 104.5t161 34.5q185 0 303.5 -126.5t118.5 -344.5q0 -147 -52 -272t-144 -217q-85 -85 -191.5 -131.5t-218.5 -46.5zM649 242q117 0 209 92q117 117 117 293q0 106 -62.5 167.5
t-167.5 61.5q-119 0 -213 -94q-118 -118 -118 -287q0 -104 66 -168.5t169 -64.5z" />
    <glyph glyph-name="c" unicode="c" horiz-adv-x="1146" 
d="M598 -25q-226 0 -369 136.5t-143 359.5q0 131 49.5 248.5t138.5 206.5q91 91 210 141.5t249 50.5q311 0 451 -241l-238 -168q-31 47 -59 75.5t-73.5 48t-104.5 19.5q-107 0 -197 -90q-55 -55 -87 -131.5t-32 -159.5q0 -104 61 -167.5t154 -63.5q69 0 126 26t122 82
l160 -203q-95 -85 -191 -127.5t-227 -42.5z" />
    <glyph glyph-name="d" unicode="d" horiz-adv-x="1382" 
d="M786 0l33 119q-75 -70 -148 -104.5t-161 -34.5q-185 0 -303.5 126.5t-118.5 344.5q0 146 52.5 271.5t144.5 217.5q85 85 191 131.5t218 46.5q123 0 204.5 -46t139.5 -134l150 557h311l-401 -1495h-312zM639 242q119 0 213 94q119 119 119 287q0 104 -66.5 168.5
t-169.5 64.5q-117 0 -209 -92q-116 -116 -116 -293q0 -107 62 -168t167 -61z" />
    <glyph glyph-name="e" unicode="e" horiz-adv-x="1243" 
d="M1128 440h-753q8 -101 70.5 -158t181.5 -57q117 0 243 88l144 -192q-174 -146 -422 -146q-236 0 -372 130.5t-136 357.5q0 127 52.5 251t146.5 218q186 186 452 186q209 0 329 -120t120 -308q0 -116 -56 -250zM492 776q-59 -59 -89 -141h478q10 33 10 72
q0 72 -44.5 116.5t-135.5 44.5q-127 0 -219 -92z" />
    <glyph glyph-name="f" unicode="f" horiz-adv-x="841" 
d="M47 0l223 831h-129l72 267h129l10 43q39 164 129 254q114 114 320 114q128 0 213 -30l-68 -258q-67 26 -135 26q-120 0 -154 -119l-8 -30h264l-71 -267h-260l-224 -831h-311z" />
    <glyph glyph-name="g" unicode="g" horiz-adv-x="1374" 
d="M512 -332q-166 0 -319 40.5t-261 113.5l164 213q87 -57 190.5 -89t205.5 -32q149 0 237 88q60 60 100 197l11 37q-88 -78 -166.5 -112t-177.5 -34q-108 0 -199.5 42.5t-150 131.5t-58.5 209q0 137 52 257.5t143 211.5q84 84 189.5 130t215.5 46q68 0 123 -15t94 -43
t66.5 -59.5t50.5 -72.5l45 170h311l-235 -883q-43 -162 -84 -244.5t-109 -150.5q-152 -152 -438 -152zM618 338q132 0 228 96t96 223q0 93 -59 147t-158 54q-123 0 -215 -92q-100 -100 -100 -234q0 -94 56.5 -144t151.5 -50z" />
    <glyph glyph-name="h" unicode="h" horiz-adv-x="1271" 
d="M-8 0l401 1495h312l-138 -512q147 135 297 135q149 0 236.5 -85.5t87.5 -233.5q0 -65 -37 -209l-158 -590h-311l162 602q14 54 14 98q0 66 -39.5 101t-111.5 35q-89 0 -150 -59t-88 -161l-166 -616h-311z" />
    <glyph glyph-name="i" unicode="i" horiz-adv-x="618" 
d="M6 0l295 1098h311l-295 -1098h-311zM326 1219l75 276h328l-76 -276h-327z" />
    <glyph glyph-name="j" unicode="j" horiz-adv-x="618" 
d="M-94 -334q-90 0 -170 17l65 243q42 -10 76 -10q51 0 90 39.5t58 110.5l276 1032h311l-286 -1071q-53 -194 -160 -277.5t-260 -83.5zM326 1219l73 276h328l-74 -276h-327z" />
    <glyph glyph-name="k" unicode="k" horiz-adv-x="1210" 
d="M-8 0l401 1495h312l-209 -774l444 377h406l-531 -428l240 -670h-348l-156 465l-158 -127l-90 -338h-311z" />
    <glyph glyph-name="l" unicode="l" horiz-adv-x="618" 
d="M6 0l402 1495h311l-402 -1495h-311z" />
    <glyph glyph-name="m" unicode="m" horiz-adv-x="1941" 
d="M-8 0l295 1098h311l-31 -115q71 64 138 99.5t151 35.5q110 0 184 -52.5t107 -145.5q162 198 393 198q148 0 233 -85t85 -234q0 -65 -37 -209l-158 -590h-311l161 602q15 58 15 98q0 66 -37 101t-109 35q-89 0 -147 -58.5t-86 -161.5l-166 -616h-311l162 602q14 54 14 98
q0 66 -37 101t-109 35q-89 0 -147 -58.5t-86 -161.5l-166 -616h-311z" />
    <glyph glyph-name="n" unicode="n" horiz-adv-x="1271" 
d="M-8 0l295 1098h311l-31 -115q147 135 297 135q149 0 236.5 -85.5t87.5 -233.5q0 -65 -37 -209l-158 -590h-311l162 602q14 54 14 98q0 66 -39.5 101t-111.5 35q-89 0 -150 -59t-88 -161l-166 -616h-311z" />
    <glyph glyph-name="o" unicode="o" horiz-adv-x="1335" 
d="M614 -25q-241 0 -384.5 142.5t-143.5 365.5q0 124 50 240.5t140 206.5q89 89 203.5 138.5t241.5 49.5q241 0 384.5 -142.5t143.5 -365.5q0 -123 -50 -239.5t-140 -206.5q-89 -89 -203.5 -139t-241.5 -50zM629 242q112 0 198 86q55 53 86 129.5t31 144.5
q0 119 -64.5 184.5t-172.5 65.5q-113 0 -199 -86q-55 -53 -86 -129.5t-31 -144.5q0 -119 65 -184.5t173 -65.5z" />
    <glyph glyph-name="p" unicode="p" horiz-adv-x="1380" 
d="M690 -20q-123 0 -204.5 46t-139.5 134l-131 -488h-311l383 1426h311l-33 -119q75 70 148 104.5t161 34.5q185 0 303.5 -126.5t118.5 -344.5q0 -147 -52 -272t-144 -217q-85 -85 -191.5 -131.5t-218.5 -46.5zM649 242q117 0 209 92q117 117 117 293q0 106 -62.5 167.5
t-167.5 61.5q-119 0 -213 -94q-118 -118 -118 -287q0 -104 66 -168.5t169 -64.5z" />
    <glyph glyph-name="q" unicode="q" horiz-adv-x="1384" 
d="M510 -20q-185 0 -303.5 126.5t-118.5 344.5q0 146 52.5 271.5t144.5 217.5q85 85 191 131.5t218 46.5q123 0 204.5 -46t139.5 -134l43 160h312l-383 -1426h-312l121 447q-75 -70 -148 -104.5t-161 -34.5zM639 242q119 0 213 94q119 119 119 287q0 104 -66.5 168.5
t-169.5 64.5q-117 0 -209 -92q-116 -116 -116 -293q0 -107 62 -168t167 -61z" />
    <glyph glyph-name="r" unicode="r" horiz-adv-x="858" 
d="M-8 0l295 1098h311l-59 -221q88 128 188 189.5t229 51.5l-88 -325h-16q-331 0 -442 -404l-107 -389h-311z" />
    <glyph glyph-name="s" unicode="s" 
d="M444 -25q-132 0 -266.5 51t-226.5 148l180 186q147 -147 336 -147q62 0 96.5 25t34.5 71q0 29 -31.5 52t-95.5 51q-63 27 -100.5 45.5t-84.5 48.5t-72.5 60t-43.5 73t-18 94q0 168 120 276.5t320 108.5q125 0 241.5 -45.5t190.5 -111.5l-168 -197q-148 117 -287 117
q-57 0 -88.5 -25t-31.5 -68q0 -30 34 -55t111 -59q53 -23 87.5 -40.5t79 -47t70.5 -59t45 -72.5t19 -93q0 -177 -125.5 -282t-325.5 -105z" />
    <glyph glyph-name="t" unicode="t" horiz-adv-x="849" 
d="M393 -18q-136 0 -208 60t-72 155q0 55 20 137l133 497h-131l72 267h131l76 280h311l-76 -280h258l-71 -267h-258l-123 -460q-9 -36 -9 -49q0 -66 84 -66q82 0 160 35l-72 -264q-95 -45 -225 -45z" />
    <glyph glyph-name="u" unicode="u" horiz-adv-x="1271" 
d="M408 -20q-149 0 -236.5 85.5t-87.5 233.5q0 65 37 209l158 590h311l-162 -602q-14 -54 -14 -99q0 -66 39.5 -100.5t111.5 -34.5q89 0 150 58.5t88 160.5l166 617h311l-295 -1098h-311l31 115q-147 -135 -297 -135z" />
    <glyph glyph-name="v" unicode="v" horiz-adv-x="1212" 
d="M307 -8l-133 1106h320l49 -731l436 731h334l-723 -1106h-283z" />
    <glyph glyph-name="w" unicode="w" horiz-adv-x="1755" 
d="M223 -8l-41 1106h316l-2 -666l385 670h268l29 -672l360 668h309l-639 -1106h-280l-31 674l-395 -674h-279z" />
    <glyph glyph-name="x" unicode="x" horiz-adv-x="1183" 
d="M526 1098l123 -307l258 307h371l-514 -555l242 -543h-332l-127 326l-279 -326h-370l536 573l-239 525h331z" />
    <glyph glyph-name="y" unicode="y" horiz-adv-x="1212" 
d="M326 -8l-136 1106h318l51 -746l412 746h336l-680 -1125q-107 -167 -210 -237t-243 -70q-146 0 -256 76l166 225q57 -43 121 -43q37 0 63.5 14t57.5 54z" />
    <glyph glyph-name="z" unicode="z" horiz-adv-x="1140" 
d="M-55 0l59 219l719 627h-533l68 252h930l-60 -219l-720 -627h559l-68 -252h-954z" />
    <glyph glyph-name="braceleft" unicode="{" horiz-adv-x="1003" 
d="M631 -289q-203 39 -292 114.5t-89 199.5q0 69 41 176q33 87 33 145q0 32 -5 51t-21 37.5t-51 26.5t-91 8h-66l64 238h65q76 0 123.5 12.5t79.5 44.5q61 61 86 240q15 105 42 182t89 139q136 136 448 139l21 -209q-183 -17 -252 -86q-27 -27 -43.5 -67t-22.5 -73.5
t-14 -94.5q-7 -55 -14.5 -94.5t-29.5 -94t-54 -86.5q-80 -80 -234 -96q83 -12 128.5 -61t45.5 -121q0 -64 -36 -158q-35 -98 -35 -143q0 -64 37 -101t149 -77z" />
    <glyph glyph-name="bar" unicode="|" horiz-adv-x="716" 
d="M18 -262l508 1896h246l-510 -1896h-244z" />
    <glyph glyph-name="braceright" unicode="}" horiz-adv-x="1003" 
d="M397 1464q203 -39 292 -114t89 -199q0 -69 -41 -176q-32 -85 -32 -146q0 -32 4.5 -51t20.5 -37t51 -26t91 -8h66l-64 -238h-65q-76 0 -123.5 -12.5t-79.5 -44.5q-61 -61 -86 -240q-15 -105 -42 -182.5t-89 -139.5q-136 -136 -448 -139l-21 209q183 17 252 86
q27 27 43.5 67.5t22.5 73.5t14 95q24 200 98 274q80 80 234 96q-83 12 -128.5 61.5t-45.5 121.5q0 63 36 157q35 98 35 144q0 64 -37 101t-149 77z" />
    <glyph glyph-name="asciitilde" unicode="~" horiz-adv-x="1044" 
d="M276 451l-163 81q56 125 137 199t176 74q50 0 85.5 -15t76.5 -45q43 -31 64 -42t44 -11q44 0 77.5 31t66.5 90l164 -82q-56 -125 -137.5 -198.5t-176.5 -73.5q-50 0 -84.5 14.5t-77.5 44.5q-43 31 -64 42t-44 11q-44 0 -77.5 -31t-66.5 -89z" />
    <glyph glyph-name="uni00A0" unicode="&#xa0;" horiz-adv-x="614" 
 />
    <glyph glyph-name="exclamdown" unicode="&#xa1;" horiz-adv-x="665" 
d="M530 946l-145 -905l-12 -41h-365l12 41l338 905h172zM741 1434l-88 -328h-331l88 328h331z" />
    <glyph glyph-name="cent" unicode="&#xa2;" horiz-adv-x="1200" 
d="M895 1446h213l-76 -193q148 -61 232 -202l-236 -164q-45 70 -106 108l-226 -573q74 1 135 26t123 74l164 -211q-173 -155 -418 -155q-48 0 -94 6l-67 -174h-213l88 225q-133 63 -206 179.5t-73 275.5q0 262 180 442q90 90 210.5 139t258.5 49q9 0 26.5 -1t25.5 -1z
M440 672q0 -122 86 -195l217 553q-111 -11 -194 -94q-51 -51 -80 -121t-29 -143z" />
    <glyph glyph-name="sterling" unicode="&#xa3;" horiz-adv-x="1318" 
d="M-27 0l56 207l170 51l77 289h-155l69 260h156l51 192q53 199 164 310q145 145 383 145q302 0 438 -246l-252 -172q-39 64 -86.5 95.5t-121.5 31.5q-83 0 -140 -57q-56 -56 -84 -160l-39 -139h474l-70 -260h-471l-74 -275h627l-74 -272h-1098z" />
    <glyph glyph-name="yen" unicode="&#xa5;" horiz-adv-x="1456" 
d="M428 0l51 188h-377l60 222h377l32 127h-376l59 221h293l-256 676h340l172 -531l461 531h374l-624 -676h297l-60 -221h-377l-32 -127h377l-60 -222h-377l-51 -188h-303z" />
    <glyph glyph-name="section" unicode="&#xa7;" horiz-adv-x="1294" 
d="M1241 743q0 -63 -26 -112.5t-69.5 -80.5t-88 -49t-94.5 -28q73 -70 73 -170q0 -139 -129.5 -230t-326.5 -91q-156 0 -282 50t-200 140l195 172q58 -58 137.5 -93.5t165.5 -35.5q66 0 104.5 21.5t38.5 56.5q0 33 -43 55t-166 55q-73 20 -121.5 36t-103 41.5t-86.5 54
t-53 69.5t-21 92q0 62 26 111.5t69.5 80.5t88.5 49t95 28q-74 68 -74 172q0 139 130 230t327 91q156 0 281.5 -50t199.5 -140l-194 -172q-58 58 -137.5 93.5t-165.5 35.5q-66 0 -105 -21.5t-39 -56.5q0 -33 43.5 -55.5t165.5 -55.5q73 -20 121.5 -36t103 -41.5t86.5 -54
t53 -69.5t21 -92zM436 750q0 -39 40.5 -64t135.5 -53q139 -43 205 -43q54 0 93.5 29t39.5 71q0 39 -40.5 64t-135.5 53q-139 43 -205 43q-54 0 -93.5 -29t-39.5 -71z" />
    <glyph glyph-name="dieresis" unicode="&#xa8;" 
d="M322 1219l75 276h299l-75 -276h-299zM760 1219l76 276h299l-76 -276h-299z" />
    <glyph glyph-name="copyright" unicode="&#xa9;" horiz-adv-x="1699" 
d="M850 319q-163 0 -264 93.5t-101 249.5q0 94 37 179.5t103 151.5q142 142 338 142q215 0 317 -168l-145 -105q-38 53 -82.5 81t-108.5 28q-106 0 -186 -80q-40 -40 -64 -99.5t-24 -121.5q0 -89 50 -138t134 -49q54 0 96.5 19.5t91.5 58.5l113 -121q-128 -121 -305 -121z
M1628 809q0 -166 -64 -323t-180 -273q-238 -238 -571 -238q-195 0 -346 86.5t-231 234t-80 329.5q0 167 63.5 323.5t179.5 272.5q237 237 572 237q147 0 270.5 -50t208 -137.5t131.5 -206.5t47 -255zM242 631q0 -160 66.5 -289t198.5 -207t308 -78q297 0 502 205
q225 225 225 545q0 118 -39 221t-111 180.5t-181.5 122.5t-241.5 45q-297 0 -502 -205q-109 -109 -167 -247t-58 -293z" />
    <glyph glyph-name="ordfeminine" unicode="&#xaa;" horiz-adv-x="798" 
d="M385 819q-78 0 -127 45.5t-49 116.5q0 102 73.5 160.5t186.5 58.5q83 0 172 -29l4 15q6 18 6 35q0 75 -116 75q-84 0 -160 -32l-29 135q100 43 225 43q120 0 182 -48.5t62 -138.5q0 -47 -12 -90l-90 -334h-166l18 70q-79 -82 -180 -82zM459 936q52 0 95.5 36t55.5 87
l4 16q-61 21 -112 21q-55 0 -89 -26t-34 -69q0 -28 22 -46.5t58 -18.5zM104 567l37 135h545l-37 -135h-545z" />
    <glyph glyph-name="guillemotleft" unicode="&#xab;" horiz-adv-x="1316" 
d="M336 68l-242 454l4 17l506 473l158 -156l-340 -354l143 -332zM889 68l-242 454l4 17l506 473l158 -156l-340 -354l143 -332z" />
    <glyph glyph-name="registered" unicode="&#xae;" horiz-adv-x="753" 
d="M561 1454q142 0 230 -90t88 -223q0 -170 -117 -287t-277 -117q-142 0 -229.5 90t-87.5 224q0 169 117 286t276 117zM489 776q139 0 240 101q109 109 109 260q0 120 -75.5 199t-205.5 79q-140 0 -240 -100q-108 -108 -108 -260q0 -120 75.5 -199.5t204.5 -79.5zM455 1026
l-29 -113h-107l101 377h149q83 0 117.5 -33.5t34.5 -82.5q0 -100 -111 -136l54 -125h-109l-47 113h-53zM477 1110h60q45 0 65 20q12 12 12 31q0 39 -55 39h-57z" />
    <glyph glyph-name="macron" unicode="&#xaf;" 
d="M326 1229l57 215h737l-57 -215h-737z" />
    <glyph glyph-name="degree" unicode="&#xb0;" horiz-adv-x="911" 
d="M571 1446q147 0 234.5 -86.5t87.5 -222.5q0 -75 -31 -146.5t-86 -126.5q-110 -110 -266 -110q-147 0 -234.5 86.5t-87.5 222.5q0 155 117 272q111 111 266 111zM518 907q81 0 139 58q70 70 70 165q0 73 -45 117.5t-119 44.5q-82 0 -139 -57q-70 -70 -70 -166
q0 -73 45 -117.5t119 -44.5z" />
    <glyph glyph-name="plusminus" unicode="&#xb1;" horiz-adv-x="1310" 
d="M483 426l97 352l-369 -2l72 271l368 -3l92 353h279l-96 -353l368 3l-71 -271l-369 2l-92 -352h-279zM4 0l68 258h1011l-69 -258h-1010z" />
    <glyph glyph-name="two.sup" unicode="&#xb2;" horiz-adv-x="819" 
d="M190 860l41 154l410 286q55 38 79.5 69t24.5 65q0 35 -27.5 57t-72.5 22q-94 0 -201 -102l-108 119q136 149 315 149q129 0 205 -63.5t76 -165.5q0 -76 -41.5 -136.5t-163.5 -139.5l-248 -158h352l-40 -156h-601z" />
    <glyph glyph-name="three.sup" unicode="&#xb3;" horiz-adv-x="819" 
d="M518 840q-202 0 -307 129l115 121q49 -45 91.5 -67t102.5 -22q66 0 111 34.5t45 78.5t-42.5 68t-119.5 24h-55l-10 109l258 184h-316l43 160h553l-37 -135l-286 -199q196 -32 196 -197q0 -124 -97 -206t-245 -82z" />
    <glyph glyph-name="acute" unicode="&#xb4;" 
d="M426 1219l330 362l262 -117l-330 -245h-262z" />
    <glyph glyph-name="mu" unicode="&#xb5;" horiz-adv-x="1372" 
d="M543 -12q-84 0 -148.5 41.5t-95.5 128.5h-4q4 -148 -35 -295l-51 -191h-305l381 1426h311l-156 -582q-18 -70 -18 -119q0 -69 42 -107t118 -38q89 0 144.5 49.5t84.5 157.5l172 639h311l-192 -719q-12 -50 -12 -74q0 -32 23 -46.5t73 -14.5q23 0 59 4l-65 -240
q-75 -20 -150 -20q-89 0 -147 37.5t-82 103.5q-103 -141 -258 -141z" />
    <glyph glyph-name="paragraph" unicode="&#xb6;" horiz-adv-x="1226" 
d="M594 0l115 434q-289 6 -422 139q-109 109 -109 295q0 227 150 377q189 189 573 189h391l-385 -1434h-313z" />
    <glyph glyph-name="periodcentered" unicode="&#xb7;" horiz-adv-x="585" 
d="M106 471l89 328h331l-88 -328h-332z" />
    <glyph glyph-name="cedilla" unicode="&#xb8;" 
d="M322 -354l-232 108l254 266h229z" />
    <glyph glyph-name="one.sup" unicode="&#xb9;" horiz-adv-x="665" 
d="M377 860l164 613l-166 -58l-17 154l279 100h131l-215 -809h-176z" />
    <glyph glyph-name="ordmasculine" unicode="&#xba;" horiz-adv-x="823" 
d="M104 567l37 135h570l-37 -135h-570zM381 1102q0 -62 35.5 -100.5t93.5 -38.5q66 0 115 49q59 59 59 147q0 62 -35.5 100.5t-93.5 38.5q-66 0 -115 -49q-59 -59 -59 -147zM852 1165q0 -140 -107 -247q-101 -101 -241 -101q-132 0 -211.5 78t-79.5 201q0 141 106 247
q101 101 242 101q132 0 211.5 -78t79.5 -201z" />
    <glyph glyph-name="guillemotright" unicode="&#xbb;" horiz-adv-x="1316" 
d="M979 1012l242 -455l-4 -16l-506 -473l-158 155l340 355l-143 331zM426 1012l242 -455l-4 -16l-506 -473l-158 155l340 355l-143 331z" />
    <glyph glyph-name="onequarter" unicode="&#xbc;" horiz-adv-x="1689" 
d="M1157 0l45 168h-385l31 170l506 473h186l-135 -502h106l-38 -141h-107l-45 -168h-164zM51 0l717 752l635 682h184l-717 -752l-634 -682h-185zM272 635l164 612l-166 -57l-16 153l278 101h132l-215 -809h-177zM1004 307h237l80 299z" />
    <glyph glyph-name="onehalf" unicode="&#xbd;" horiz-adv-x="1689" 
d="M272 635l164 612l-166 -57l-16 153l278 101h132l-215 -809h-177zM805 0l41 154l409 286q55 39 80 69t25 64q0 36 -27.5 58t-72.5 22q-94 0 -201 -102l-109 119q136 149 316 149q129 0 204.5 -63t75.5 -166q0 -76 -41.5 -137t-163.5 -140l-247 -157h352l-41 -156h-600z
M31 0l717 752l634 682h185l-717 -752l-635 -682h-184z" />
    <glyph glyph-name="threequarters" unicode="&#xbe;" horiz-adv-x="1843" 
d="M1311 0l45 168h-385l30 170l506 473h187l-135 -502h106l-39 -141h-106l-45 -168h-164zM412 614q-203 0 -308 129l115 121q48 -45 91.5 -66.5t103.5 -21.5q66 0 110.5 34.5t44.5 78.5t-42 68t-119 24h-56l-10 109l258 184h-315l43 160h553l-37 -136l-287 -198
q95 -15 146 -64.5t51 -132.5q0 -125 -97 -207t-245 -82zM195 0l716 752l635 682h185l-717 -752l-635 -682h-184zM1157 307h238l80 299z" />
    <glyph glyph-name="questiondown" unicode="&#xbf;" horiz-adv-x="1114" 
d="M846 946l-41 -332l-12 -10q-198 -14 -304 -67t-106 -142q0 -60 42.5 -93.5t127.5 -33.5q73 0 150 32t143 89l164 -207q-96 -97 -228 -148.5t-272 -51.5q-208 0 -332.5 109t-124.5 263q0 180 133.5 294.5t391.5 154.5l59 143h209zM1032 1434l-88 -328h-332l88 328h332z
" />
    <glyph glyph-name="Agrave" unicode="&#xc0;" horiz-adv-x="1566" 
d="M-117 0l1002 1444h303l227 -1444h-323l-45 322h-607l-217 -322h-340zM629 600h381l-66 473zM946 1567l-223 205l276 116l160 -321h-213z" />
    <glyph glyph-name="Aacute" unicode="&#xc1;" horiz-adv-x="1566" 
d="M-117 0l1002 1444h303l227 -1444h-323l-45 322h-607l-217 -322h-340zM629 600h381l-66 473zM936 1567l336 321l260 -116l-334 -205h-262z" />
    <glyph glyph-name="Acircumflex" unicode="&#xc2;" horiz-adv-x="1566" 
d="M-117 0l1002 1444h303l227 -1444h-323l-45 322h-607l-217 -322h-340zM629 600h381l-66 473zM641 1556l342 302h295l182 -302h-229l-131 115l-193 -115h-266z" />
    <glyph glyph-name="Atilde" unicode="&#xc3;" horiz-adv-x="1566" 
d="M-117 0l1002 1444h303l227 -1444h-323l-45 322h-607l-217 -322h-340zM629 600h381l-66 473zM817 1546l-166 58q62 141 128 208.5t167 67.5q75 0 187 -45q87 -35 118 -35q45 0 75 24t63 77l165 -58q-62 -141 -127.5 -208.5t-166.5 -67.5q-75 0 -187 45q-87 35 -119 35
q-45 0 -74.5 -23.5t-62.5 -77.5z" />
    <glyph glyph-name="Adieresis" unicode="&#xc4;" horiz-adv-x="1566" 
d="M-117 0l1002 1444h303l227 -1444h-323l-45 322h-607l-217 -322h-340zM629 600h381l-66 473zM698 1567l72 260h299l-72 -260h-299zM1145 1567l72 260h299l-72 -260h-299z" />
    <glyph glyph-name="Aring" unicode="&#xc5;" horiz-adv-x="1566" 
d="M-117 0l957 1380q-37 53 -37 111q0 106 74.5 180t205.5 74q98 0 165 -58.5t67 -140.5q0 -64 -29 -119t-82 -90l211 -1337h-323l-45 322h-607l-217 -322h-340zM629 600h381l-66 473zM1042 1401q65 0 106.5 41t41.5 92q0 46 -32 74t-83 28q-65 0 -106 -41t-41 -92
q0 -46 31.5 -74t82.5 -28z" />
    <glyph glyph-name="AE" unicode="&#xc6;" horiz-adv-x="2166" 
d="M-125 0l1157 1434h1254l-76 -281h-717l-78 -293h625l-76 -276h-625l-82 -303h730l-76 -281h-1041l86 322h-483l-256 -322h-342zM696 600h336l150 561h-39z" />
    <glyph glyph-name="Ccedilla" unicode="&#xc7;" horiz-adv-x="1486" 
d="M573 -354l-231 108l240 252q-204 60 -324.5 215.5t-120.5 378.5q0 168 67 324t187 276q121 121 281 189.5t338 68.5q386 0 573 -305l-260 -182q-45 64 -90.5 104.5t-112 66t-149.5 25.5q-189 0 -336 -147q-79 -79 -124.5 -185t-45.5 -223q0 -154 97.5 -250t252.5 -96
q97 0 172 34.5t164 107.5l205 -213q-113 -105 -243.5 -162.5t-299.5 -57.5h-18z" />
    <glyph glyph-name="Egrave" unicode="&#xc8;" horiz-adv-x="1361" 
d="M25 0l385 1434h1071l-76 -281h-758l-78 -293h666l-76 -276h-665l-82 -303h770l-76 -281h-1081zM848 1546l-223 205l276 117l160 -322h-213z" />
    <glyph glyph-name="Eacute" unicode="&#xc9;" horiz-adv-x="1361" 
d="M25 0l385 1434h1071l-76 -281h-758l-78 -293h666l-76 -276h-665l-82 -303h770l-76 -281h-1081zM838 1546l336 322l260 -117l-334 -205h-262z" />
    <glyph glyph-name="Ecircumflex" unicode="&#xca;" horiz-adv-x="1361" 
d="M25 0l385 1434h1071l-76 -281h-758l-78 -293h666l-76 -276h-665l-82 -303h770l-76 -281h-1081zM547 1546l342 301h295l182 -301h-229l-131 115l-193 -115h-266z" />
    <glyph glyph-name="Edieresis" unicode="&#xcb;" horiz-adv-x="1361" 
d="M25 0l385 1434h1071l-76 -281h-758l-78 -293h666l-76 -276h-665l-82 -303h770l-76 -281h-1081zM600 1546l72 260h299l-72 -260h-299zM1047 1546l71 260h299l-71 -260h-299z" />
    <glyph glyph-name="Igrave" unicode="&#xcc;" horiz-adv-x="688" 
d="M39 0l385 1434h315l-385 -1434h-315zM485 1546l-223 205l277 117l159 -322h-213z" />
    <glyph glyph-name="Iacute" unicode="&#xcd;" horiz-adv-x="688" 
d="M39 0l385 1434h315l-385 -1434h-315zM475 1546l336 322l260 -117l-334 -205h-262z" />
    <glyph glyph-name="Icircumflex" unicode="&#xce;" horiz-adv-x="688" 
d="M39 0l385 1434h315l-385 -1434h-315zM184 1546l342 301h295l183 -301h-230l-131 115l-192 -115h-267z" />
    <glyph glyph-name="Idieresis" unicode="&#xcf;" horiz-adv-x="688" 
d="M39 0l385 1434h315l-385 -1434h-315zM238 1546l71 260h299l-71 -260h-299zM684 1546l72 260h299l-72 -260h-299z" />
    <glyph glyph-name="Eth" unicode="&#xd0;" horiz-adv-x="1632" 
d="M59 612l60 217h170l162 605h417q377 0 562 -185q155 -155 155 -420q0 -330 -235 -565q-264 -264 -752 -264h-532l163 612h-170zM1174 1044q-105 105 -330 105h-154l-88 -320h293l-59 -217h-291l-88 -327h178q145 0 269.5 44.5t209.5 129.5q143 143 143 358q0 144 -83 227
z" />
    <glyph glyph-name="Ntilde" unicode="&#xd1;" horiz-adv-x="1609" 
d="M25 0l385 1434h290l418 -912l246 912h311l-385 -1434h-268l-434 940l-252 -940h-311zM819 1526l-166 57q62 141 128 209t167 68q75 0 187 -45q87 -35 118 -35q45 0 75 23.5t63 76.5l165 -57q-63 -142 -128 -209.5t-166 -67.5q-75 0 -187 45q-87 35 -119 35
q-45 0 -74.5 -23.5t-62.5 -76.5z" />
    <glyph glyph-name="Ograve" unicode="&#xd2;" horiz-adv-x="1703" 
d="M999 1458q145 0 268.5 -49t208 -133.5t132 -201.5t47.5 -251q0 -164 -66 -321t-186 -277q-118 -118 -273 -184t-337 -66q-145 0 -268.5 49t-208 133.5t-132 201.5t-47.5 251q0 164 66 321t186 277q118 118 273 184t337 66zM829 266q190 0 332 142q77 77 121.5 184
t44.5 211q0 164 -95.5 264t-268.5 100q-191 0 -332 -141q-77 -77 -121.5 -184t-44.5 -211q0 -164 95.5 -264.5t268.5 -100.5zM983 1567l-223 205l276 116l160 -321h-213z" />
    <glyph glyph-name="Oacute" unicode="&#xd3;" horiz-adv-x="1703" 
d="M999 1458q145 0 268.5 -49t208 -133.5t132 -201.5t47.5 -251q0 -164 -66 -321t-186 -277q-118 -118 -273 -184t-337 -66q-145 0 -268.5 49t-208 133.5t-132 201.5t-47.5 251q0 164 66 321t186 277q118 118 273 184t337 66zM829 266q190 0 332 142q77 77 121.5 184
t44.5 211q0 164 -95.5 264t-268.5 100q-191 0 -332 -141q-77 -77 -121.5 -184t-44.5 -211q0 -164 95.5 -264.5t268.5 -100.5zM956 1567l336 321l260 -116l-333 -205h-263z" />
    <glyph glyph-name="Ocircumflex" unicode="&#xd4;" horiz-adv-x="1703" 
d="M999 1458q145 0 268.5 -49t208 -133.5t132 -201.5t47.5 -251q0 -164 -66 -321t-186 -277q-118 -118 -273 -184t-337 -66q-145 0 -268.5 49t-208 133.5t-132 201.5t-47.5 251q0 164 66 321t186 277q118 118 273 184t337 66zM829 266q190 0 332 142q77 77 121.5 184
t44.5 211q0 164 -95.5 264t-268.5 100q-191 0 -332 -141q-77 -77 -121.5 -184t-44.5 -211q0 -164 95.5 -264.5t268.5 -100.5zM682 1567l342 301h295l182 -301h-229l-131 114l-193 -114h-266z" />
    <glyph glyph-name="Otilde" unicode="&#xd5;" horiz-adv-x="1703" 
d="M999 1458q145 0 268.5 -49t208 -133.5t132 -201.5t47.5 -251q0 -164 -66 -321t-186 -277q-118 -118 -273 -184t-337 -66q-145 0 -268.5 49t-208 133.5t-132 201.5t-47.5 251q0 164 66 321t186 277q118 118 273 184t337 66zM829 266q190 0 332 142q77 77 121.5 184
t44.5 211q0 164 -95.5 264t-268.5 100q-191 0 -332 -141q-77 -77 -121.5 -184t-44.5 -211q0 -164 95.5 -264.5t268.5 -100.5zM856 1546l-166 58q62 141 128 208.5t167 67.5q74 0 186 -45q88 -35 119 -35q45 0 74.5 23.5t62.5 77.5l166 -58q-62 -141 -128 -208.5t-167 -67.5
q-74 0 -186 45q-87 35 -119 35q-45 0 -74.5 -23.5t-62.5 -77.5z" />
    <glyph glyph-name="Odieresis" unicode="&#xd6;" horiz-adv-x="1703" 
d="M999 1458q145 0 268.5 -49t208 -133.5t132 -201.5t47.5 -251q0 -164 -66 -321t-186 -277q-118 -118 -273 -184t-337 -66q-145 0 -268.5 49t-208 133.5t-132 201.5t-47.5 251q0 164 66 321t186 277q118 118 273 184t337 66zM829 266q190 0 332 142q77 77 121.5 184
t44.5 211q0 164 -95.5 264t-268.5 100q-191 0 -332 -141q-77 -77 -121.5 -184t-44.5 -211q0 -164 95.5 -264.5t268.5 -100.5zM735 1567l72 260h299l-72 -260h-299zM1182 1567l71 260h299l-71 -260h-299z" />
    <glyph glyph-name="multiply" unicode="&#xd7;" horiz-adv-x="1310" 
d="M270 207l-159 215l405 313l-233 312l237 186l223 -320l404 322l160 -215l-406 -311l234 -310l-238 -188l-223 317z" />
    <glyph glyph-name="Oslash" unicode="&#xd8;" horiz-adv-x="1703" 
d="M999 1458q250 0 424 -137l136 123h301l-299 -277q94 -156 94 -344q0 -164 -66 -321t-186 -277q-118 -118 -273 -184t-337 -66q-252 0 -426 138l-134 -123h-301l299 274q-94 151 -94 346q0 164 66 321t186 277q118 118 273 184t337 66zM453 629q0 -90 26 -158l709 651
q-88 60 -223 60q-194 0 -340 -146q-81 -81 -126.5 -190.5t-45.5 -216.5zM827 252q196 0 340 147q81 78 126.5 188.5t45.5 219.5q0 78 -26 154l-709 -650q89 -59 223 -59z" />
    <glyph glyph-name="Ugrave" unicode="&#xd9;" horiz-adv-x="1564" 
d="M702 -23q-250 0 -393 128t-143 356q0 107 35 229l198 744h316l-207 -772q-23 -81 -23 -156q0 -108 65.5 -173t184.5 -65q141 0 234 90q93 93 139 267l217 809h315l-229 -854q-74 -279 -221 -426q-177 -177 -488 -177zM911 1546l-223 205l277 117l159 -322h-213z" />
    <glyph glyph-name="Uacute" unicode="&#xda;" horiz-adv-x="1564" 
d="M702 -23q-250 0 -393 128t-143 356q0 107 35 229l198 744h316l-207 -772q-23 -81 -23 -156q0 -108 65.5 -173t184.5 -65q141 0 234 90q93 93 139 267l217 809h315l-229 -854q-74 -279 -221 -426q-177 -177 -488 -177zM901 1546l336 322l260 -117l-334 -205h-262z" />
    <glyph glyph-name="Ucircumflex" unicode="&#xdb;" horiz-adv-x="1564" 
d="M702 -23q-250 0 -393 128t-143 356q0 107 35 229l198 744h316l-207 -772q-23 -81 -23 -156q0 -108 65.5 -173t184.5 -65q141 0 234 90q93 93 139 267l217 809h315l-229 -854q-74 -279 -221 -426q-177 -177 -488 -177zM610 1546l342 301h295l183 -301h-230l-131 115
l-192 -115h-267z" />
    <glyph glyph-name="Udieresis" unicode="&#xdc;" horiz-adv-x="1564" 
d="M702 -23q-250 0 -393 128t-143 356q0 107 35 229l198 744h316l-207 -772q-23 -81 -23 -156q0 -108 65.5 -173t184.5 -65q141 0 234 90q93 93 139 267l217 809h315l-229 -854q-74 -279 -221 -426q-177 -177 -488 -177zM664 1546l71 260h299l-71 -260h-299zM1110 1546
l72 260h299l-72 -260h-299z" />
    <glyph glyph-name="Yacute" unicode="&#xdd;" horiz-adv-x="1331" 
d="M346 0l152 565l-297 869h350l168 -594l491 594h381l-784 -897l-145 -537h-316zM768 1546l336 322l260 -117l-334 -205h-262z" />
    <glyph glyph-name="Thorn" unicode="&#xde;" horiz-adv-x="1390" 
d="M25 0l385 1434h315l-55 -209h139q156 0 265 -34.5t186 -111.5q110 -110 110 -295q0 -219 -145 -364q-95 -95 -237.5 -145t-313.5 -50h-273l-61 -225h-315zM475 502h215q191 0 285 94q65 65 65 162q0 76 -45 121q-61 61 -198 61h-205z" />
    <glyph glyph-name="germandbls" unicode="&#xdf;" horiz-adv-x="1294" 
d="M465 -4l65 242q92 -3 159.5 13.5t105.5 48t55.5 70t17.5 85.5q0 148 -235 172l55 204q144 33 213.5 100.5t69.5 160.5q0 73 -46.5 114t-115.5 41q-172 0 -236 -233l-270 -1014h-309l276 1030q59 218 179 338q141 141 370 141q207 0 326 -109t119 -278
q0 -145 -83.5 -244.5t-232.5 -146.5q213 -91 213 -285q0 -101 -41.5 -184t-124 -145t-218 -94t-312.5 -27z" />
    <glyph glyph-name="agrave" unicode="&#xe0;" horiz-adv-x="1204" 
d="M334 -20q-142 0 -231 82.5t-89 211.5q0 160 105 265q131 131 368 131q155 0 310 -49l4 14q12 50 12 82q0 129 -207 129q-148 0 -293 -60l-49 246q188 78 408 78q219 0 331.5 -87.5t112.5 -250.5q0 -72 -24 -166l-162 -606h-301l33 127q-138 -147 -328 -147zM467 193
q94 0 171.5 64.5t104.5 156.5l9 28q-103 39 -205 39q-117 0 -178 -61q-45 -45 -45 -111q0 -52 39 -84t104 -32zM645 1219l-194 245l274 117l133 -362h-213z" />
    <glyph glyph-name="aacute" unicode="&#xe1;" horiz-adv-x="1204" 
d="M334 -20q-142 0 -231 82.5t-89 211.5q0 160 105 265q131 131 368 131q155 0 310 -49l4 14q12 50 12 82q0 129 -207 129q-148 0 -293 -60l-49 246q188 78 408 78q219 0 331.5 -87.5t112.5 -250.5q0 -72 -24 -166l-162 -606h-301l33 127q-138 -147 -328 -147zM467 193
q94 0 171.5 64.5t104.5 156.5l9 28q-103 39 -205 39q-117 0 -178 -61q-45 -45 -45 -111q0 -52 39 -84t104 -32zM639 1219l330 362l262 -117l-330 -245h-262z" />
    <glyph glyph-name="acircumflex" unicode="&#xe2;" horiz-adv-x="1204" 
d="M334 -20q-142 0 -231 82.5t-89 211.5q0 160 105 265q131 131 368 131q155 0 310 -49l4 14q12 50 12 82q0 129 -207 129q-148 0 -293 -60l-49 246q188 78 408 78q219 0 331.5 -87.5t112.5 -250.5q0 -72 -24 -166l-162 -606h-301l33 127q-138 -147 -328 -147zM467 193
q94 0 171.5 64.5t104.5 156.5l9 28q-103 39 -205 39q-117 0 -178 -61q-45 -45 -45 -111q0 -52 39 -84t104 -32zM354 1219l338 321h295l166 -321h-225l-125 135l-199 -135h-250z" />
    <glyph glyph-name="atilde" unicode="&#xe3;" horiz-adv-x="1204" 
d="M334 -20q-142 0 -231 82.5t-89 211.5q0 160 105 265q131 131 368 131q155 0 310 -49l4 14q12 50 12 82q0 129 -207 129q-148 0 -293 -60l-49 246q188 78 408 78q219 0 331.5 -87.5t112.5 -250.5q0 -72 -24 -166l-162 -606h-301l33 127q-138 -147 -328 -147zM467 193
q94 0 171.5 64.5t104.5 156.5l9 28q-103 39 -205 39q-117 0 -178 -61q-45 -45 -45 -111q0 -52 39 -84t104 -32zM1077 1552l166 -55q-31 -70 -58.5 -117t-62.5 -85.5t-77.5 -57t-94.5 -18.5q-74 0 -178 45q-85 34 -115 34q-44 0 -72.5 -23t-62.5 -77l-166 55q63 143 128 211
t165 68q74 0 178 -45q87 -35 115 -35q44 0 72.5 23t62.5 77z" />
    <glyph glyph-name="adieresis" unicode="&#xe4;" horiz-adv-x="1204" 
d="M334 -20q-142 0 -231 82.5t-89 211.5q0 160 105 265q131 131 368 131q155 0 310 -49l4 14q12 50 12 82q0 129 -207 129q-148 0 -293 -60l-49 246q188 78 408 78q219 0 331.5 -87.5t112.5 -250.5q0 -72 -24 -166l-162 -606h-301l33 127q-138 -147 -328 -147zM467 193
q94 0 171.5 64.5t104.5 156.5l9 28q-103 39 -205 39q-117 0 -178 -61q-45 -45 -45 -111q0 -52 39 -84t104 -32zM397 1219l76 276h299l-76 -276h-299zM836 1219l75 276h299l-75 -276h-299z" />
    <glyph glyph-name="aring" unicode="&#xe5;" horiz-adv-x="1204" 
d="M334 -20q-142 0 -231 82.5t-89 211.5q0 160 105 265q131 131 368 131q155 0 310 -49l4 14q12 50 12 82q0 129 -207 129q-148 0 -293 -60l-49 246q188 78 408 78q219 0 331.5 -87.5t112.5 -250.5q0 -72 -24 -166l-162 -606h-301l33 127q-138 -147 -328 -147zM467 193
q94 0 171.5 64.5t104.5 156.5l9 28q-103 39 -205 39q-117 0 -178 -61q-45 -45 -45 -111q0 -52 39 -84t104 -32zM1075 1485q0 -108 -76 -189.5t-188 -81.5q-101 0 -163 59.5t-62 149.5q0 108 76 189.5t188 81.5q101 0 163 -59.5t62 -149.5zM705 1434q0 -53 31 -84t79 -31
q60 0 100.5 48t40.5 108q0 53 -31 83.5t-79 30.5q-61 0 -101 -47.5t-40 -107.5z" />
    <glyph glyph-name="ae" unicode="&#xe6;" horiz-adv-x="1925" 
d="M365 -20q-166 0 -258.5 80t-92.5 214q0 160 105 265q131 131 368 131q155 0 310 -49l4 14q12 50 12 82q0 129 -207 129q-148 0 -293 -60l-49 246q188 78 408 78q268 0 360 -162q170 170 395 170q201 0 320 -120.5t119 -307.5q0 -116 -56 -250h-753q8 -101 70.5 -158
t181.5 -57q117 0 243 88l144 -192q-72 -66 -182.5 -106t-239.5 -40q-142 0 -249.5 53.5t-168.5 157.5q-200 -206 -491 -206zM487 193q75 0 163 37t153 102q-9 43 -12 94q-124 55 -244 55q-117 0 -178 -61q-45 -45 -45 -111q0 -53 42 -84.5t121 -31.5zM1174 776
q-59 -59 -89 -141h478q10 33 10 72q0 72 -44.5 116.5t-135.5 44.5q-127 0 -219 -92z" />
    <glyph glyph-name="ccedilla" unicode="&#xe7;" horiz-adv-x="1146" 
d="M385 -354l-231 108l243 254q-145 53 -228 174t-83 289q0 131 49.5 248.5t138.5 206.5q91 91 210 141.5t249 50.5q311 0 451 -241l-238 -168q-31 47 -59 75.5t-73.5 48t-104.5 19.5q-107 0 -197 -90q-55 -55 -87 -131.5t-32 -159.5q0 -104 61 -167.5t154 -63.5
q69 0 126 26t122 82l160 -203q-92 -83 -187.5 -126t-222.5 -44z" />
    <glyph glyph-name="egrave" unicode="&#xe8;" horiz-adv-x="1243" 
d="M1128 440h-753q8 -101 70.5 -158t181.5 -57q117 0 243 88l144 -192q-174 -146 -422 -146q-236 0 -372 130.5t-136 357.5q0 127 52.5 251t146.5 218q186 186 452 186q209 0 329 -120t120 -308q0 -116 -56 -250zM492 776q-59 -59 -89 -141h478q10 33 10 72
q0 72 -44.5 116.5t-135.5 44.5q-127 0 -219 -92zM690 1219l-194 245l274 117l133 -362h-213z" />
    <glyph glyph-name="eacute" unicode="&#xe9;" horiz-adv-x="1243" 
d="M1128 440h-753q8 -101 70.5 -158t181.5 -57q117 0 243 88l144 -192q-174 -146 -422 -146q-236 0 -372 130.5t-136 357.5q0 127 52.5 251t146.5 218q186 186 452 186q209 0 329 -120t120 -308q0 -116 -56 -250zM684 1219l330 362l262 -117l-330 -245h-262zM492 776
q-59 -59 -89 -141h478q10 33 10 72q0 72 -44.5 116.5t-135.5 44.5q-127 0 -219 -92z" />
    <glyph glyph-name="ecircumflex" unicode="&#xea;" horiz-adv-x="1243" 
d="M1128 440h-753q8 -101 70.5 -158t181.5 -57q117 0 243 88l144 -192q-174 -146 -422 -146q-236 0 -372 130.5t-136 357.5q0 127 52.5 251t146.5 218q186 186 452 186q209 0 329 -120t120 -308q0 -116 -56 -250zM401 1219l338 321h295l166 -321h-225l-125 135l-199 -135
h-250zM492 776q-59 -59 -89 -141h478q10 33 10 72q0 72 -44.5 116.5t-135.5 44.5q-127 0 -219 -92z" />
    <glyph glyph-name="edieresis" unicode="&#xeb;" horiz-adv-x="1243" 
d="M1128 440h-753q8 -101 70.5 -158t181.5 -57q117 0 243 88l144 -192q-174 -146 -422 -146q-236 0 -372 130.5t-136 357.5q0 127 52.5 251t146.5 218q186 186 452 186q209 0 329 -120t120 -308q0 -116 -56 -250zM492 776q-59 -59 -89 -141h478q10 33 10 72
q0 72 -44.5 116.5t-135.5 44.5q-127 0 -219 -92zM444 1219l76 276h299l-76 -276h-299zM883 1219l75 276h299l-75 -276h-299z" />
    <glyph glyph-name="igrave" unicode="&#xec;" horiz-adv-x="618" 
d="M6 0l295 1098h311l-295 -1098h-311zM367 1219l-195 245l274 117l134 -362h-213z" />
    <glyph glyph-name="iacute" unicode="&#xed;" horiz-adv-x="618" 
d="M6 0l295 1098h311l-295 -1098h-311zM360 1219l330 362l262 -117l-329 -245h-263z" />
    <glyph glyph-name="icircumflex" unicode="&#xee;" horiz-adv-x="618" 
d="M6 0l295 1098h311l-295 -1098h-311zM78 1219l338 321h295l166 -321h-226l-125 135l-198 -135h-250z" />
    <glyph glyph-name="idieresis" unicode="&#xef;" horiz-adv-x="618" 
d="M6 0l295 1098h311l-295 -1098h-311zM121 1219l76 276h299l-76 -276h-299zM559 1219l76 276h299l-76 -276h-299z" />
    <glyph glyph-name="eth" unicode="&#xf0;" horiz-adv-x="1339" 
d="M516 1155l-49 160l199 51q-64 68 -129 129h383l43 -49l245 65l52 -157l-191 -51q184 -275 184 -570q0 -169 -57 -318.5t-164 -256.5q-85 -85 -198.5 -134t-245.5 -49q-227 0 -364.5 133.5t-137.5 362.5q0 132 48.5 252t135.5 207q164 164 383 164q89 0 156 -30t129 -93
q-44 117 -154 256zM612 238q119 0 209 90q54 54 85.5 128.5t31.5 151.5q0 112 -62 178t-167 66q-121 0 -211 -90q-53 -53 -82 -126.5t-29 -152.5q0 -114 59 -179.5t166 -65.5z" />
    <glyph glyph-name="ntilde" unicode="&#xf1;" horiz-adv-x="1271" 
d="M-8 0l295 1098h311l-31 -115q147 135 297 135q149 0 236.5 -85.5t87.5 -233.5q0 -65 -37 -209l-158 -590h-311l162 602q14 54 14 98q0 66 -39.5 101t-111.5 35q-89 0 -150 -59t-88 -161l-166 -616h-311zM1106 1552l166 -55q-31 -70 -58.5 -117t-62.5 -85.5t-77.5 -57
t-94.5 -18.5q-74 0 -178 45q-85 34 -115 34q-44 0 -72.5 -23t-62.5 -77l-166 55q63 143 128 211t165 68q74 0 178 -45q88 -35 115 -35q44 0 72.5 23t62.5 77z" />
    <glyph glyph-name="ograve" unicode="&#xf2;" horiz-adv-x="1335" 
d="M614 -25q-241 0 -384.5 142.5t-143.5 365.5q0 124 50 240.5t140 206.5q89 89 203.5 138.5t241.5 49.5q241 0 384.5 -142.5t143.5 -365.5q0 -123 -50 -239.5t-140 -206.5q-89 -89 -203.5 -139t-241.5 -50zM629 242q112 0 198 86q55 53 86 129.5t31 144.5
q0 119 -64.5 184.5t-172.5 65.5q-113 0 -199 -86q-55 -53 -86 -129.5t-31 -144.5q0 -119 65 -184.5t173 -65.5zM717 1219l-195 245l275 117l133 -362h-213z" />
    <glyph glyph-name="oacute" unicode="&#xf3;" horiz-adv-x="1335" 
d="M614 -25q-241 0 -384.5 142.5t-143.5 365.5q0 124 50 240.5t140 206.5q89 89 203.5 138.5t241.5 49.5q241 0 384.5 -142.5t143.5 -365.5q0 -123 -50 -239.5t-140 -206.5q-89 -89 -203.5 -139t-241.5 -50zM629 242q112 0 198 86q55 53 86 129.5t31 144.5
q0 119 -64.5 184.5t-172.5 65.5q-113 0 -199 -86q-55 -53 -86 -129.5t-31 -144.5q0 -119 65 -184.5t173 -65.5zM694 1219l330 362l262 -117l-330 -245h-262z" />
    <glyph glyph-name="ocircumflex" unicode="&#xf4;" horiz-adv-x="1335" 
d="M614 -25q-241 0 -384.5 142.5t-143.5 365.5q0 124 50 240.5t140 206.5q89 89 203.5 138.5t241.5 49.5q241 0 384.5 -142.5t143.5 -365.5q0 -123 -50 -239.5t-140 -206.5q-89 -89 -203.5 -139t-241.5 -50zM629 242q112 0 198 86q55 53 86 129.5t31 144.5
q0 119 -64.5 184.5t-172.5 65.5q-113 0 -199 -86q-55 -53 -86 -129.5t-31 -144.5q0 -119 65 -184.5t173 -65.5zM428 1219l338 321h295l166 -321h-226l-124 135l-199 -135h-250z" />
    <glyph glyph-name="otilde" unicode="&#xf5;" horiz-adv-x="1335" 
d="M614 -25q-241 0 -384.5 142.5t-143.5 365.5q0 124 50 240.5t140 206.5q89 89 203.5 138.5t241.5 49.5q241 0 384.5 -142.5t143.5 -365.5q0 -123 -50 -239.5t-140 -206.5q-89 -89 -203.5 -139t-241.5 -50zM629 242q112 0 198 86q55 53 86 129.5t31 144.5
q0 119 -64.5 184.5t-172.5 65.5q-113 0 -199 -86q-55 -53 -86 -129.5t-31 -144.5q0 -119 65 -184.5t173 -65.5zM1151 1552l166 -55q-31 -70 -58.5 -117t-62.5 -85.5t-77.5 -57t-94.5 -18.5q-74 0 -178 45q-85 34 -115 34q-44 0 -72.5 -23t-62.5 -77l-166 55q63 143 128 211
t165 68q74 0 178 -45q88 -35 115 -35q44 0 72.5 23t62.5 77z" />
    <glyph glyph-name="odieresis" unicode="&#xf6;" horiz-adv-x="1335" 
d="M614 -25q-241 0 -384.5 142.5t-143.5 365.5q0 124 50 240.5t140 206.5q89 89 203.5 138.5t241.5 49.5q241 0 384.5 -142.5t143.5 -365.5q0 -123 -50 -239.5t-140 -206.5q-89 -89 -203.5 -139t-241.5 -50zM629 242q112 0 198 86q55 53 86 129.5t31 144.5
q0 119 -64.5 184.5t-172.5 65.5q-113 0 -199 -86q-55 -53 -86 -129.5t-31 -144.5q0 -119 65 -184.5t173 -65.5zM471 1219l76 276h299l-76 -276h-299zM909 1219l76 276h299l-76 -276h-299z" />
    <glyph glyph-name="divide" unicode="&#xf7;" horiz-adv-x="1310" 
d="M385 133l78 295h319l-77 -295h-320zM150 590l71 262h1032l-71 -262h-1032zM621 1014l77 295h320l-78 -295h-319z" />
    <glyph glyph-name="oslash" unicode="&#xf8;" horiz-adv-x="1335" 
d="M-100 -12l252 229q-66 117 -66 266q0 124 50 240.5t140 206.5q89 89 203.5 138.5t241.5 49.5q205 0 342 -106l100 94h273l-254 -229q67 -113 67 -267q0 -123 -50 -239.5t-140 -206.5q-89 -89 -203.5 -139t-241.5 -50q-202 0 -342 105l-100 -92h-272zM381 492q0 -42 6 -80
l459 419q-54 31 -131 31q-123 0 -215 -92q-56 -56 -87.5 -131.5t-31.5 -146.5zM621 231q122 0 215 93q56 56 87 131.5t31 146.5q0 47 -8 80l-459 -422q54 -29 134 -29z" />
    <glyph glyph-name="ugrave" unicode="&#xf9;" horiz-adv-x="1271" 
d="M408 -20q-149 0 -236.5 85.5t-87.5 233.5q0 65 37 209l158 590h311l-162 -602q-14 -54 -14 -99q0 -66 39.5 -100.5t111.5 -34.5q89 0 150 58.5t88 160.5l166 617h311l-295 -1098h-311l31 115q-147 -135 -297 -135zM688 1219l-194 245l274 117l133 -362h-213z" />
    <glyph glyph-name="uacute" unicode="&#xfa;" horiz-adv-x="1271" 
d="M408 -20q-149 0 -236.5 85.5t-87.5 233.5q0 65 37 209l158 590h311l-162 -602q-14 -54 -14 -99q0 -66 39.5 -100.5t111.5 -34.5q89 0 150 58.5t88 160.5l166 617h311l-295 -1098h-311l31 115q-147 -135 -297 -135zM682 1219l330 362l262 -117l-330 -245h-262z" />
    <glyph glyph-name="ucircumflex" unicode="&#xfb;" horiz-adv-x="1271" 
d="M408 -20q-149 0 -236.5 85.5t-87.5 233.5q0 65 37 209l158 590h311l-162 -602q-14 -54 -14 -99q0 -66 39.5 -100.5t111.5 -34.5q89 0 150 58.5t88 160.5l166 617h311l-295 -1098h-311l31 115q-147 -135 -297 -135zM397 1219l338 321h295l166 -321h-225l-125 135
l-199 -135h-250z" />
    <glyph glyph-name="udieresis" unicode="&#xfc;" horiz-adv-x="1271" 
d="M408 -20q-149 0 -236.5 85.5t-87.5 233.5q0 65 37 209l158 590h311l-162 -602q-14 -54 -14 -99q0 -66 39.5 -100.5t111.5 -34.5q89 0 150 58.5t88 160.5l166 617h311l-295 -1098h-311l31 115q-147 -135 -297 -135zM440 1219l76 276h299l-76 -276h-299zM879 1219l75 276
h299l-75 -276h-299z" />
    <glyph glyph-name="yacute" unicode="&#xfd;" horiz-adv-x="1212" 
d="M326 -8l-136 1106h318l51 -746l412 746h336l-680 -1125q-107 -167 -210 -237t-243 -70q-146 0 -256 76l166 225q57 -43 121 -43q37 0 63.5 14t57.5 54zM639 1219l330 362l262 -117l-330 -245h-262z" />
    <glyph glyph-name="thorn" unicode="&#xfe;" horiz-adv-x="1378" 
d="M688 -20q-123 0 -204.5 46t-139.5 134l-129 -488h-311l487 1823h311l-139 -516q75 70 148 104.5t161 34.5q185 0 303.5 -126.5t118.5 -344.5q0 -147 -52 -272t-144 -217q-85 -85 -191.5 -131.5t-218.5 -46.5zM647 242q117 0 209 92q117 117 117 293q0 106 -62.5 167.5
t-167.5 61.5q-119 0 -213 -94q-118 -118 -118 -287q0 -104 66 -168.5t169 -64.5z" />
    <glyph glyph-name="ydieresis" unicode="&#xff;" horiz-adv-x="1212" 
d="M326 -8l-136 1106h318l51 -746l412 746h336l-680 -1125q-107 -167 -210 -237t-243 -70q-146 0 -256 76l166 225q57 -43 121 -43q37 0 63.5 14t57.5 54zM399 1219l76 276h299l-76 -276h-299zM838 1219l75 276h299l-75 -276h-299z" />
    <glyph glyph-name="Amacron" unicode="&#x100;" horiz-adv-x="1566" 
d="M-117 0l1002 1444h303l227 -1444h-323l-45 322h-607l-217 -322h-340zM629 600h381l-66 473zM684 1577l59 219h779l-60 -219h-778z" />
    <glyph glyph-name="amacron" unicode="&#x101;" horiz-adv-x="1204" 
d="M334 -20q-142 0 -231 82.5t-89 211.5q0 160 105 265q131 131 368 131q155 0 310 -49l4 14q12 50 12 82q0 129 -207 129q-148 0 -293 -60l-49 246q188 78 408 78q219 0 331.5 -87.5t112.5 -250.5q0 -72 -24 -166l-162 -606h-301l33 127q-138 -147 -328 -147zM467 193
q94 0 171.5 64.5t104.5 156.5l9 28q-103 39 -205 39q-117 0 -178 -61q-45 -45 -45 -111q0 -52 39 -84t104 -32zM399 1229l58 215h737l-57 -215h-738z" />
    <glyph glyph-name="Abreve" unicode="&#x102;" horiz-adv-x="1566" 
d="M-117 0l1002 1444h303l227 -1444h-323l-45 322h-607l-217 -322h-340zM629 600h381l-66 473zM1067 1563q-166 0 -249.5 80t-59.5 225h198q13 -101 154 -101q73 0 119.5 25.5t79.5 75.5h227q-52 -145 -177.5 -225t-291.5 -80z" />
    <glyph glyph-name="abreve" unicode="&#x103;" horiz-adv-x="1204" 
d="M334 -20q-142 0 -231 82.5t-89 211.5q0 160 105 265q131 131 368 131q155 0 310 -49l4 14q12 50 12 82q0 129 -207 129q-148 0 -293 -60l-49 246q188 78 408 78q219 0 331.5 -87.5t112.5 -250.5q0 -72 -24 -166l-162 -606h-301l33 127q-138 -147 -328 -147zM467 193
q94 0 171.5 64.5t104.5 156.5l9 28q-103 39 -205 39q-117 0 -178 -61q-45 -45 -45 -111q0 -52 39 -84t104 -32zM793 1214q-89 0 -156.5 26.5t-106.5 72.5t-58 103t-17 124h213q3 -53 39.5 -88t99.5 -35q76 0 123 31.5t86 91.5h215q-48 -145 -162.5 -235.5t-275.5 -90.5z" />
    <glyph glyph-name="Aogonek" unicode="&#x104;" horiz-adv-x="1566" 
d="M1401 -199l-37 -137q-52 -8 -109 -8q-101 0 -159 36t-58 101q0 92 129 207h-75l-45 322h-607l-217 -322h-340l1002 1444h303l227 -1444h-45q-90 -90 -90 -141q0 -32 29 -45t92 -13zM629 600h381l-66 473z" />
    <glyph glyph-name="aogonek" unicode="&#x105;" horiz-adv-x="1204" 
d="M922 -199l-37 -137q-52 -8 -109 -8q-101 0 -159 36t-58 101q0 92 129 207h-59l33 127q-138 -147 -328 -147q-142 0 -231 82.5t-89 211.5q0 160 105 265q131 131 368 131q155 0 310 -49l4 14q12 50 12 82q0 129 -207 129q-148 0 -293 -60l-49 246q188 78 408 78
q219 0 331.5 -87.5t112.5 -250.5q0 -72 -24 -166l-162 -606h-39q-90 -90 -90 -141q0 -32 29 -45t92 -13zM467 193q94 0 171.5 64.5t104.5 156.5l9 28q-103 39 -205 39q-117 0 -178 -61q-45 -45 -45 -111q0 -52 39 -84t104 -32z" />
    <glyph glyph-name="Cacute" unicode="&#x106;" horiz-adv-x="1486" 
d="M813 -25q-297 0 -486.5 171t-189.5 454q0 168 67 324t187 276q121 121 281 189.5t338 68.5q386 0 573 -305l-260 -182q-45 64 -90.5 104.5t-112 66t-149.5 25.5q-189 0 -336 -147q-79 -79 -124.5 -185t-45.5 -223q0 -154 97.5 -250t252.5 -96q97 0 172 34.5t164 107.5
l205 -213q-113 -105 -243.5 -162.5t-299.5 -57.5zM942 1567l336 321l260 -116l-334 -205h-262z" />
    <glyph glyph-name="cacute" unicode="&#x107;" horiz-adv-x="1146" 
d="M598 -25q-226 0 -369 136.5t-143 359.5q0 131 49.5 248.5t138.5 206.5q91 91 210 141.5t249 50.5q311 0 451 -241l-238 -168q-31 47 -59 75.5t-73.5 48t-104.5 19.5q-107 0 -197 -90q-55 -55 -87 -131.5t-32 -159.5q0 -104 61 -167.5t154 -63.5q69 0 126 26t122 82
l160 -203q-95 -85 -191 -127.5t-227 -42.5zM653 1219l330 362l262 -117l-330 -245h-262z" />
    <glyph glyph-name="Cdotaccent" unicode="&#x10a;" horiz-adv-x="1486" 
d="M813 -25q-297 0 -486.5 171t-189.5 454q0 168 67 324t187 276q121 121 281 189.5t338 68.5q386 0 573 -305l-260 -182q-45 64 -90.5 104.5t-112 66t-149.5 25.5q-189 0 -336 -147q-79 -79 -124.5 -185t-45.5 -223q0 -154 97.5 -250t252.5 -96q97 0 172 34.5t164 107.5
l205 -213q-113 -105 -243.5 -162.5t-299.5 -57.5zM924 1567l71 260h308l-72 -260h-307z" />
    <glyph glyph-name="cdotaccent" unicode="&#x10b;" horiz-adv-x="1146" 
d="M598 -25q-226 0 -369 136.5t-143 359.5q0 131 49.5 248.5t138.5 206.5q91 91 210 141.5t249 50.5q311 0 451 -241l-238 -168q-31 47 -59 75.5t-73.5 48t-104.5 19.5q-107 0 -197 -90q-55 -55 -87 -131.5t-32 -159.5q0 -104 61 -167.5t154 -63.5q69 0 126 26t122 82
l160 -203q-95 -85 -191 -127.5t-227 -42.5zM629 1219l76 276h307l-76 -276h-307z" />
    <glyph glyph-name="Ccaron" unicode="&#x10c;" horiz-adv-x="1486" 
d="M813 -25q-297 0 -486.5 171t-189.5 454q0 168 67 324t187 276q121 121 281 189.5t338 68.5q386 0 573 -305l-260 -182q-45 64 -90.5 104.5t-112 66t-149.5 25.5q-189 0 -336 -147q-79 -79 -124.5 -185t-45.5 -223q0 -154 97.5 -250t252.5 -96q97 0 172 34.5t164 107.5
l205 -213q-113 -105 -243.5 -162.5t-299.5 -57.5zM1583 1868l-342 -301h-295l-182 301h229l131 -115l193 115h266z" />
    <glyph glyph-name="ccaron" unicode="&#x10d;" horiz-adv-x="1146" 
d="M598 -25q-226 0 -369 136.5t-143 359.5q0 131 49.5 248.5t138.5 206.5q91 91 210 141.5t249 50.5q311 0 451 -241l-238 -168q-31 47 -59 75.5t-73.5 48t-104.5 19.5q-107 0 -197 -90q-55 -55 -87 -131.5t-32 -159.5q0 -104 61 -167.5t154 -63.5q69 0 126 26t122 82
l160 -203q-95 -85 -191 -127.5t-227 -42.5zM592 1219l-166 321h225l125 -135l199 135h250l-338 -321h-295z" />
    <glyph glyph-name="Dcaron" unicode="&#x10e;" horiz-adv-x="1591" 
d="M25 0l385 1434h417q377 0 562 -185q155 -155 155 -420q0 -330 -235 -565q-264 -264 -752 -264h-532zM1133 1044q-105 105 -330 105h-154l-233 -864h178q145 0 269.5 44.5t209.5 129.5q144 144 144 358q0 143 -84 227zM1495 1847l-342 -301h-295l-182 301h229l131 -114
l193 114h266z" />
    <glyph glyph-name="dcaron" unicode="&#x10f;" horiz-adv-x="1382" 
d="M786 0l33 119q-75 -70 -148 -104.5t-161 -34.5q-185 0 -303.5 126.5t-118.5 344.5q0 146 52.5 271.5t144.5 217.5q85 85 191 131.5t218 46.5q123 0 204.5 -46t139.5 -134l150 557h311l-401 -1495h-312zM639 242q119 0 213 94q119 119 119 287q0 104 -66.5 168.5
t-169.5 64.5q-117 0 -209 -92q-116 -116 -116 -293q0 -107 62 -168t167 -61zM1532 1212l113 426h243v-6l-233 -420h-123z" />
    <glyph glyph-name="Dcroat" unicode="&#x110;" horiz-adv-x="1632" 
d="M59 612l60 217h170l162 605h417q377 0 562 -185q155 -155 155 -420q0 -330 -235 -565q-264 -264 -752 -264h-532l163 612h-170zM1174 1044q-105 105 -330 105h-154l-88 -320h293l-59 -217h-291l-88 -327h178q145 0 269.5 44.5t209.5 129.5q143 143 143 358q0 144 -83 227
z" />
    <glyph glyph-name="dcroat" unicode="&#x111;" horiz-adv-x="1380" 
d="M788 1214l48 175h323l29 106h311l-29 -106h134l-48 -175h-133l-325 -1214h-312l33 119q-75 -70 -148 -104.5t-161 -34.5q-185 0 -303.5 126.5t-118.5 344.5q0 146 52.5 271.5t144.5 217.5q85 85 191 131.5t218 46.5q123 0 204.5 -46t139.5 -134l74 276h-324zM639 242
q119 0 213 94q119 119 119 287q0 104 -66.5 168.5t-169.5 64.5q-117 0 -209 -92q-116 -116 -116 -293q0 -107 62 -168t167 -61z" />
    <glyph glyph-name="Emacron" unicode="&#x112;" horiz-adv-x="1361" 
d="M25 0l385 1434h1071l-76 -281h-758l-78 -293h666l-76 -276h-665l-82 -303h770l-76 -281h-1081zM588 1556l59 220h778l-59 -220h-778z" />
    <glyph glyph-name="emacron" unicode="&#x113;" horiz-adv-x="1243" 
d="M1128 440h-753q8 -101 70.5 -158t181.5 -57q117 0 243 88l144 -192q-174 -146 -422 -146q-236 0 -372 130.5t-136 357.5q0 127 52.5 251t146.5 218q186 186 452 186q209 0 329 -120t120 -308q0 -116 -56 -250zM446 1229l58 215h737l-57 -215h-738zM492 776
q-59 -59 -89 -141h478q10 33 10 72q0 72 -44.5 116.5t-135.5 44.5q-127 0 -219 -92z" />
    <glyph glyph-name="Ebreve" unicode="&#x114;" horiz-adv-x="1361" 
d="M25 0l385 1434h1071l-76 -281h-758l-78 -293h666l-76 -276h-665l-82 -303h770l-76 -281h-1081zM971 1542q-166 0 -249.5 80t-59.5 225h198q13 -100 154 -100q73 0 119 25t79 75h228q-52 -145 -177.5 -225t-291.5 -80z" />
    <glyph glyph-name="ebreve" unicode="&#x115;" horiz-adv-x="1243" 
d="M1128 440h-753q8 -101 70.5 -158t181.5 -57q117 0 243 88l144 -192q-174 -146 -422 -146q-236 0 -372 130.5t-136 357.5q0 127 52.5 251t146.5 218q186 186 452 186q209 0 329 -120t120 -308q0 -116 -56 -250zM840 1214q-89 0 -156.5 26.5t-106.5 72.5t-58 103t-17 124
h213q3 -53 39.5 -88t99.5 -35q76 0 123 31.5t86 91.5h215q-48 -145 -162.5 -235.5t-275.5 -90.5zM492 776q-59 -59 -89 -141h478q10 33 10 72q0 72 -44.5 116.5t-135.5 44.5q-127 0 -219 -92z" />
    <glyph glyph-name="Edotaccent" unicode="&#x116;" horiz-adv-x="1361" 
d="M25 0l385 1434h1071l-76 -281h-758l-78 -293h666l-76 -276h-665l-82 -303h770l-76 -281h-1081zM819 1546l72 260h307l-72 -260h-307z" />
    <glyph glyph-name="edotaccent" unicode="&#x117;" horiz-adv-x="1243" 
d="M1128 440h-753q8 -101 70.5 -158t181.5 -57q117 0 243 88l144 -192q-174 -146 -422 -146q-236 0 -372 130.5t-136 357.5q0 127 52.5 251t146.5 218q186 186 452 186q209 0 329 -120t120 -308q0 -116 -56 -250zM492 776q-59 -59 -89 -141h478q10 33 10 72
q0 72 -44.5 116.5t-135.5 44.5q-127 0 -219 -92zM659 1219l76 276h307l-75 -276h-308z" />
    <glyph glyph-name="Eogonek" unicode="&#x118;" horiz-adv-x="1361" 
d="M25 0l385 1434h1071l-76 -281h-758l-78 -293h666l-76 -276h-665l-82 -303h770l-76 -281h-57q-91 -91 -91 -141q0 -32 29 -45t92 -13l-37 -137q-52 -8 -108 -8q-101 0 -159 36t-58 101q0 92 129 207h-821z" />
    <glyph glyph-name="eogonek" unicode="&#x119;" horiz-adv-x="1243" 
d="M870 313l142 -190q-129 -98 -166 -135q-74 -74 -74 -129q0 -32 29 -45t92 -13l-37 -137q-52 -8 -108 -8q-101 0 -159.5 36t-58.5 101q0 83 101 184q-10 -2 -39 -2q-236 0 -372 130.5t-136 357.5q0 127 52.5 251t146.5 218q186 186 452 186q209 0 329 -120t120 -308
q0 -116 -56 -250h-753q8 -101 70.5 -158t181.5 -57q117 0 243 88zM492 776q-59 -59 -89 -141h478q10 33 10 72q0 72 -44.5 116.5t-135.5 44.5q-127 0 -219 -92z" />
    <glyph glyph-name="Ecaron" unicode="&#x11a;" horiz-adv-x="1361" 
d="M25 0l385 1434h1071l-76 -281h-758l-78 -293h666l-76 -276h-665l-82 -303h770l-76 -281h-1081zM1479 1847l-342 -301h-295l-183 301h230l131 -114l192 114h267z" />
    <glyph glyph-name="ecaron" unicode="&#x11b;" horiz-adv-x="1243" 
d="M1128 440h-753q8 -101 70.5 -158t181.5 -57q117 0 243 88l144 -192q-174 -146 -422 -146q-236 0 -372 130.5t-136 357.5q0 127 52.5 251t146.5 218q186 186 452 186q209 0 329 -120t120 -308q0 -116 -56 -250zM623 1219l-166 321h225l125 -135l199 135h249l-337 -321
h-295zM492 776q-59 -59 -89 -141h478q10 33 10 72q0 72 -44.5 116.5t-135.5 44.5q-127 0 -219 -92z" />
    <glyph glyph-name="Gbreve" unicode="&#x11e;" horiz-adv-x="1597" 
d="M809 -25q-100 0 -196 23t-183 73.5t-152.5 122t-104 176t-38.5 228.5q0 166 66.5 321.5t187.5 276.5q123 123 287.5 192.5t353.5 69.5q211 0 356.5 -69t229.5 -179l-234 -206q-151 165 -376 165q-108 0 -205.5 -41.5t-171.5 -115.5q-77 -77 -121.5 -183t-44.5 -221
q0 -162 103.5 -253t262.5 -91q137 0 256 55l68 234h-317l73 272h623l-203 -714q-240 -136 -520 -136zM1092 1563q-166 0 -250 80t-60 225h199q13 -101 154 -101q73 0 119 25.5t79 75.5h228q-52 -145 -177.5 -225t-291.5 -80z" />
    <glyph glyph-name="gbreve" unicode="&#x11f;" horiz-adv-x="1374" 
d="M512 -332q-166 0 -319 40.5t-261 113.5l164 213q87 -57 190.5 -89t205.5 -32q149 0 237 88q60 60 100 197l11 37q-88 -78 -166.5 -112t-177.5 -34q-108 0 -199.5 42.5t-150 131.5t-58.5 209q0 137 52 257.5t143 211.5q84 84 189.5 130t215.5 46q68 0 123 -15t94 -43
t66.5 -59.5t50.5 -72.5l45 170h311l-235 -883q-43 -162 -84 -244.5t-109 -150.5q-152 -152 -438 -152zM618 338q132 0 228 96t96 223q0 93 -59 147t-158 54q-123 0 -215 -92q-100 -100 -100 -234q0 -94 56.5 -144t151.5 -50zM891 1214q-89 0 -156.5 26.5t-106.5 72.5
t-58 103t-17 124h213q3 -53 39.5 -88t99.5 -35q76 0 123 31.5t86 91.5h215q-48 -145 -162.5 -235.5t-275.5 -90.5z" />
    <glyph glyph-name="Gdotaccent" unicode="&#x120;" horiz-adv-x="1597" 
d="M809 -25q-100 0 -196 23t-183 73.5t-152.5 122t-104 176t-38.5 228.5q0 166 66.5 321.5t187.5 276.5q123 123 287.5 192.5t353.5 69.5q211 0 356.5 -69t229.5 -179l-234 -206q-151 165 -376 165q-108 0 -205.5 -41.5t-171.5 -115.5q-77 -77 -121.5 -183t-44.5 -221
q0 -162 103.5 -253t262.5 -91q137 0 256 55l68 234h-317l73 272h623l-203 -714q-240 -136 -520 -136zM942 1567l72 260h307l-72 -260h-307z" />
    <glyph glyph-name="gdotaccent" unicode="&#x121;" horiz-adv-x="1374" 
d="M512 -332q-166 0 -319 40.5t-261 113.5l164 213q87 -57 190.5 -89t205.5 -32q149 0 237 88q60 60 100 197l11 37q-88 -78 -166.5 -112t-177.5 -34q-108 0 -199.5 42.5t-150 131.5t-58.5 209q0 137 52 257.5t143 211.5q84 84 189.5 130t215.5 46q68 0 123 -15t94 -43
t66.5 -59.5t50.5 -72.5l45 170h311l-235 -883q-43 -162 -84 -244.5t-109 -150.5q-152 -152 -438 -152zM618 338q132 0 228 96t96 223q0 93 -59 147t-158 54q-123 0 -215 -92q-100 -100 -100 -234q0 -94 56.5 -144t151.5 -50zM711 1219l75 276h308l-76 -276h-307z" />
    <glyph glyph-name="Gcommaaccent" unicode="&#x122;" horiz-adv-x="1597" 
d="M809 -25q-100 0 -196 23t-183 73.5t-152.5 122t-104 176t-38.5 228.5q0 166 66.5 321.5t187.5 276.5q123 123 287.5 192.5t353.5 69.5q211 0 356.5 -69t229.5 -179l-234 -206q-151 165 -376 165q-108 0 -205.5 -41.5t-171.5 -115.5q-77 -77 -121.5 -183t-44.5 -221
q0 -162 103.5 -253t262.5 -91q137 0 256 55l68 234h-317l73 272h623l-203 -714q-240 -136 -520 -136zM428 -608l10 94q83 8 133 45.5t62 101.5h-131l63 236h283l-53 -199q-39 -144 -129.5 -209.5t-237.5 -68.5z" />
    <glyph glyph-name="gcommaaccent" unicode="&#x123;" horiz-adv-x="1374" 
d="M512 -332q-166 0 -319 40.5t-261 113.5l164 213q87 -57 190.5 -89t205.5 -32q149 0 237 88q60 60 100 197l11 37q-88 -78 -166.5 -112t-177.5 -34q-108 0 -199.5 42.5t-150 131.5t-58.5 209q0 137 52 257.5t143 211.5q84 84 189.5 130t215.5 46q68 0 123 -15t94 -43
t66.5 -59.5t50.5 -72.5l45 170h311l-235 -883q-43 -162 -84 -244.5t-109 -150.5q-152 -152 -438 -152zM618 338q132 0 228 96t96 223q0 93 -59 147t-158 54q-123 0 -215 -92q-100 -100 -100 -234q0 -94 56.5 -144t151.5 -50zM1130 1696l-10 -94q-169 -15 -194 -148h131
l-64 -235h-282l53 198q39 144 129 210t237 69z" />
    <glyph glyph-name="Hbar" unicode="&#x126;" horiz-adv-x="1548" 
d="M164 1049l57 215h141l48 170h315l-45 -170h573l45 170h316l-47 -170h145l-59 -215h-144l-280 -1049h-316l156 575h-573l-156 -575h-315l280 1049h-141zM573 866h574l49 187h-573z" />
    <glyph glyph-name="hbar" unicode="&#x127;" horiz-adv-x="1273" 
d="M178 1214l45 175h144l28 106h312l-29 -106h313l-45 -175h-315l-62 -231q147 135 297 135q149 0 236.5 -85.5t87.5 -233.5q0 -65 -37 -209l-158 -590h-311l162 602q14 54 14 98q0 66 -39.5 101t-111.5 35q-89 0 -150 -59t-88 -161l-166 -616h-311l325 1214h-141z" />
    <glyph glyph-name="Imacron" unicode="&#x12a;" horiz-adv-x="688" 
d="M39 0l385 1434h315l-385 -1434h-315zM225 1556l60 220h778l-59 -220h-779z" />
    <glyph glyph-name="imacron" unicode="&#x12b;" horiz-adv-x="618" 
d="M6 0l295 1098h311l-295 -1098h-311zM123 1229l57 215h738l-58 -215h-737z" />
    <glyph glyph-name="Ibreve" unicode="&#x12c;" horiz-adv-x="688" 
d="M39 0l385 1434h315l-385 -1434h-315zM608 1542q-166 0 -249.5 80t-59.5 225h199q13 -100 153 -100q73 0 120 25t79 75h227q-52 -145 -177.5 -225t-291.5 -80z" />
    <glyph glyph-name="ibreve" unicode="&#x12d;" horiz-adv-x="618" 
d="M6 0l295 1098h311l-295 -1098h-311zM514 1214q-89 0 -156.5 26.5t-106.5 72.5t-58 103t-17 124h213q3 -53 39.5 -88t99.5 -35q76 0 123 31.5t86 91.5h215q-48 -145 -162.5 -235.5t-275.5 -90.5z" />
    <glyph glyph-name="Iogonek" unicode="&#x12e;" horiz-adv-x="688" 
d="M39 0l385 1434h315l-385 -1434h-43q-90 -90 -90 -141q0 -32 29 -45t92 -13l-37 -137q-52 -8 -108 -8q-101 0 -159 36t-58 101q0 92 129 207h-70z" />
    <glyph glyph-name="iogonek" unicode="&#x12f;" horiz-adv-x="618" 
d="M6 0l295 1098h311l-295 -1098h-47q-90 -90 -90 -141q0 -32 29 -45t92 -13l-37 -137q-52 -8 -108 -8q-101 0 -159 36t-58 101q0 88 129 207h-62zM326 1219l75 276h328l-76 -276h-327z" />
    <glyph glyph-name="Idotaccent" unicode="&#x130;" horiz-adv-x="688" 
d="M39 0l385 1434h315l-385 -1434h-315zM457 1546l71 260h308l-72 -260h-307z" />
    <glyph glyph-name="dotlessi" unicode="&#x131;" horiz-adv-x="618" 
d="M6 0l295 1098h311l-295 -1098h-311z" />
    <glyph glyph-name="Kcommaaccent" unicode="&#x136;" horiz-adv-x="1488" 
d="M25 0l385 1434h315l-170 -635l709 635h426l-699 -600l338 -834h-346l-242 645l-297 -254l-104 -391h-315zM346 -588l10 94q83 7 133 45t62 103h-131l63 235h283l-53 -198q-39 -144 -129.5 -210t-237.5 -69z" />
    <glyph glyph-name="kcommaaccent" unicode="&#x137;" horiz-adv-x="1210" 
d="M-8 0l401 1495h312l-209 -774l444 377h406l-531 -428l240 -670h-348l-156 465l-158 -127l-90 -338h-311zM166 -598l10 94q83 7 133 45t62 103h-131l63 235h283l-54 -198q-39 -144 -129 -210t-237 -69z" />
    <glyph glyph-name="Lacute" unicode="&#x139;" horiz-adv-x="1282" 
d="M25 0l385 1434h315l-307 -1147h715l-78 -287h-1030zM498 1546l336 322l260 -117l-334 -205h-262z" />
    <glyph glyph-name="lacute" unicode="&#x13a;" horiz-adv-x="618" 
d="M6 0l402 1495h311l-402 -1495h-311zM461 1577l336 321l260 -116l-334 -205h-262z" />
    <glyph glyph-name="Lcommaaccent" unicode="&#x13b;" horiz-adv-x="1282" 
d="M25 0l385 1434h315l-307 -1147h715l-78 -287h-1030zM221 -598l10 94q83 7 133 45t62 103h-131l63 235h283l-53 -198q-39 -144 -129.5 -210t-237.5 -69z" />
    <glyph glyph-name="lcommaaccent" unicode="&#x13c;" horiz-adv-x="618" 
d="M6 0l402 1495h311l-402 -1495h-311zM-139 -598l10 94q83 7 133 45t62 103h-132l64 235h283l-54 -198q-39 -144 -129 -210t-237 -69z" />
    <glyph glyph-name="Lcaron" unicode="&#x13d;" horiz-adv-x="1282" 
d="M25 0l385 1434h315l-307 -1147h715l-78 -287h-1030zM752 1008l112 426h244v-7l-234 -419h-122z" />
    <glyph glyph-name="lcaron" unicode="&#x13e;" horiz-adv-x="618" 
d="M6 0l402 1495h311l-402 -1495h-311zM758 1212l112 426h244v-6l-233 -420h-123z" />
    <glyph glyph-name="Ldot" unicode="&#x13f;" horiz-adv-x="1282" 
d="M868 645l76 277h295l-76 -277h-295zM25 0l385 1434h315l-307 -1147h715l-78 -287h-1030z" />
    <glyph glyph-name="ldot" unicode="&#x140;" horiz-adv-x="802" 
d="M614 647l70 256h246l-70 -256h-246zM6 0l402 1495h311l-402 -1495h-311z" />
    <glyph glyph-name="Lslash" unicode="&#x141;" horiz-adv-x="1345" 
d="M66 492l79 292l166 45l162 605h315l-137 -510l420 116l-78 -292l-420 -117l-92 -344h715l-78 -287h-1030l143 537z" />
    <glyph glyph-name="lslash" unicode="&#x142;" horiz-adv-x="735" 
d="M57 526l78 293l166 45l170 631h311l-145 -537l166 46l-78 -293l-166 -47l-178 -664h-311l153 571z" />
    <glyph glyph-name="Nacute" unicode="&#x143;" horiz-adv-x="1609" 
d="M25 0l385 1434h290l418 -912l246 912h311l-385 -1434h-268l-434 940l-252 -940h-311zM936 1546l336 322l260 -117l-334 -205h-262z" />
    <glyph glyph-name="nacute" unicode="&#x144;" horiz-adv-x="1271" 
d="M-8 0l295 1098h311l-31 -115q147 135 297 135q149 0 236.5 -85.5t87.5 -233.5q0 -65 -37 -209l-158 -590h-311l162 602q14 54 14 98q0 66 -39.5 101t-111.5 35q-89 0 -150 -59t-88 -161l-166 -616h-311zM668 1219l329 362l263 -117l-330 -245h-262z" />
    <glyph glyph-name="Ncommaaccent" unicode="&#x145;" horiz-adv-x="1609" 
d="M25 0l385 1434h290l418 -912l246 912h311l-385 -1434h-268l-434 940l-252 -940h-311zM358 -588l11 94q169 15 194 148h-131l64 235h282l-53 -198q-39 -144 -129.5 -210t-237.5 -69z" />
    <glyph glyph-name="ncommaaccent" unicode="&#x146;" horiz-adv-x="1271" 
d="M-8 0l295 1098h311l-31 -115q147 135 297 135q149 0 236.5 -85.5t87.5 -233.5q0 -65 -37 -209l-158 -590h-311l162 602q14 54 14 98q0 66 -39.5 101t-111.5 35q-89 0 -150 -59t-88 -161l-166 -616h-311zM168 -598l10 94q83 7 133 45t62 103h-131l63 235h283l-53 -198
q-39 -144 -129.5 -210t-237.5 -69z" />
    <glyph glyph-name="Ncaron" unicode="&#x147;" horiz-adv-x="1609" 
d="M25 0l385 1434h290l418 -912l246 912h311l-385 -1434h-268l-434 940l-252 -940h-311zM1577 1847l-342 -301h-295l-182 301h229l131 -114l193 114h266z" />
    <glyph glyph-name="ncaron" unicode="&#x148;" horiz-adv-x="1271" 
d="M-8 0l295 1098h311l-31 -115q147 135 297 135q149 0 236.5 -85.5t87.5 -233.5q0 -65 -37 -209l-158 -590h-311l162 602q14 54 14 98q0 66 -39.5 101t-111.5 35q-89 0 -150 -59t-88 -161l-166 -616h-311zM604 1219l-166 321h226l124 -135l199 135h250l-338 -321h-295z" />
    <glyph glyph-name="Omacron" unicode="&#x14c;" horiz-adv-x="1703" 
d="M999 1458q145 0 268.5 -49t208 -133.5t132 -201.5t47.5 -251q0 -164 -66 -321t-186 -277q-118 -118 -273 -184t-337 -66q-145 0 -268.5 49t-208 133.5t-132 201.5t-47.5 251q0 164 66 321t186 277q118 118 273 184t337 66zM829 266q190 0 332 142q77 77 121.5 184
t44.5 211q0 164 -95.5 264t-268.5 100q-191 0 -332 -141q-77 -77 -121.5 -184t-44.5 -211q0 -164 95.5 -264.5t268.5 -100.5zM723 1577l59 219h779l-60 -219h-778z" />
    <glyph glyph-name="omacron" unicode="&#x14d;" horiz-adv-x="1335" 
d="M614 -25q-241 0 -384.5 142.5t-143.5 365.5q0 124 50 240.5t140 206.5q89 89 203.5 138.5t241.5 49.5q241 0 384.5 -142.5t143.5 -365.5q0 -123 -50 -239.5t-140 -206.5q-89 -89 -203.5 -139t-241.5 -50zM629 242q112 0 198 86q55 53 86 129.5t31 144.5
q0 119 -64.5 184.5t-172.5 65.5q-113 0 -199 -86q-55 -53 -86 -129.5t-31 -144.5q0 -119 65 -184.5t173 -65.5zM473 1229l57 215h738l-58 -215h-737z" />
    <glyph glyph-name="Obreve" unicode="&#x14e;" horiz-adv-x="1703" 
d="M999 1458q145 0 268.5 -49t208 -133.5t132 -201.5t47.5 -251q0 -164 -66 -321t-186 -277q-118 -118 -273 -184t-337 -66q-145 0 -268.5 49t-208 133.5t-132 201.5t-47.5 251q0 164 66 321t186 277q118 118 273 184t337 66zM829 266q190 0 332 142q77 77 121.5 184
t44.5 211q0 164 -95.5 264t-268.5 100q-191 0 -332 -141q-77 -77 -121.5 -184t-44.5 -211q0 -164 95.5 -264.5t268.5 -100.5zM1104 1563q-166 0 -249.5 80t-59.5 225h198q13 -101 154 -101q73 0 119.5 25.5t79.5 75.5h227q-52 -145 -177.5 -225t-291.5 -80z" />
    <glyph glyph-name="obreve" unicode="&#x14f;" horiz-adv-x="1335" 
d="M614 -25q-241 0 -384.5 142.5t-143.5 365.5q0 124 50 240.5t140 206.5q89 89 203.5 138.5t241.5 49.5q241 0 384.5 -142.5t143.5 -365.5q0 -123 -50 -239.5t-140 -206.5q-89 -89 -203.5 -139t-241.5 -50zM629 242q112 0 198 86q55 53 86 129.5t31 144.5
q0 119 -64.5 184.5t-172.5 65.5q-113 0 -199 -86q-55 -53 -86 -129.5t-31 -144.5q0 -119 65 -184.5t173 -65.5zM866 1214q-89 0 -156.5 26.5t-106.5 72.5t-58 103t-17 124h213q3 -52 40 -87.5t100 -35.5q76 0 123 31.5t86 91.5h215q-48 -145 -163 -235.5t-276 -90.5z" />
    <glyph glyph-name="Ohungarumlaut" unicode="&#x150;" horiz-adv-x="1703" 
d="M999 1458q145 0 268.5 -49t208 -133.5t132 -201.5t47.5 -251q0 -164 -66 -321t-186 -277q-118 -118 -273 -184t-337 -66q-145 0 -268.5 49t-208 133.5t-132 201.5t-47.5 251q0 164 66 321t186 277q118 118 273 184t337 66zM829 266q190 0 332 142q77 77 121.5 184
t44.5 211q0 164 -95.5 264t-268.5 100q-191 0 -332 -141q-77 -77 -121.5 -184t-44.5 -211q0 -164 95.5 -264.5t268.5 -100.5zM731 1567l336 321l250 -116l-334 -205h-252zM1133 1567l335 321l250 -116l-334 -205h-251z" />
    <glyph glyph-name="ohungarumlaut" unicode="&#x151;" horiz-adv-x="1335" 
d="M614 -25q-241 0 -384.5 142.5t-143.5 365.5q0 124 50 240.5t140 206.5q89 89 203.5 138.5t241.5 49.5q241 0 384.5 -142.5t143.5 -365.5q0 -123 -50 -239.5t-140 -206.5q-89 -89 -203.5 -139t-241.5 -50zM629 242q112 0 198 86q55 53 86 129.5t31 144.5
q0 119 -64.5 184.5t-172.5 65.5q-113 0 -199 -86q-55 -53 -86 -129.5t-31 -144.5q0 -119 65 -184.5t173 -65.5zM408 1219l325 362l232 -117l-330 -245h-227zM807 1219l330 362l231 -117l-334 -245h-227z" />
    <glyph glyph-name="OE" unicode="&#x152;" horiz-adv-x="2193" 
d="M854 0q-202 0 -338 49t-233 146q-146 146 -146 409q0 329 236 565q265 265 751 265h1188l-76 -281h-716l-78 -293h624l-75 -276h-625l-82 -303h729l-76 -281h-1083zM549 389q104 -104 330 -104h92l233 864h-117q-145 0 -269.5 -44.5t-209.5 -129.5q-69 -69 -106 -162
t-37 -197q0 -143 84 -227z" />
    <glyph glyph-name="oe" unicode="&#x153;" horiz-adv-x="2105" 
d="M614 -25q-241 0 -384.5 142.5t-143.5 365.5q0 124 50 240.5t140 206.5q89 89 203.5 138.5t241.5 49.5q150 0 257.5 -57t164.5 -160q82 101 197 159t257 58q209 0 329 -120t120 -308q0 -118 -55 -250h-754q8 -101 70.5 -158t181.5 -57q118 0 244 88l143 -192
q-72 -66 -182.5 -106t-239.5 -40q-292 0 -407 201q-79 -94 -191 -147.5t-242 -53.5zM629 242q112 0 198 86q55 53 86 129.5t31 144.5q0 119 -64.5 184.5t-172.5 65.5q-113 0 -199 -86q-55 -53 -86 -129.5t-31 -144.5q0 -119 65 -184.5t173 -65.5zM1354 776q-58 -58 -88 -141
h477q10 33 10 72q0 72 -44.5 116.5t-135.5 44.5q-127 0 -219 -92z" />
    <glyph glyph-name="Racute" unicode="&#x154;" horiz-adv-x="1488" 
d="M920 0l-222 459h-235l-123 -459h-315l385 1434h522q310 0 454 -144q111 -111 111 -289q0 -208 -131 -339q-126 -126 -332 -173l244 -489h-358zM539 737h280q197 0 289 92q59 59 59 146q0 70 -45 115q-59 59 -209 59h-264zM815 1546l336 322l260 -117l-334 -205h-262z" />
    <glyph glyph-name="racute" unicode="&#x155;" horiz-adv-x="858" 
d="M-8 0l295 1098h311l-59 -221q88 128 188 189.5t229 51.5l-88 -325h-16q-331 0 -442 -404l-107 -389h-311zM485 1219l330 362l262 -117l-329 -245h-263z" />
    <glyph glyph-name="Rcommaaccent" unicode="&#x156;" horiz-adv-x="1488" 
d="M920 0l-222 459h-235l-123 -459h-315l385 1434h522q310 0 454 -144q111 -111 111 -289q0 -208 -131 -339q-126 -126 -332 -173l244 -489h-358zM539 737h280q197 0 289 92q59 59 59 146q0 70 -45 115q-59 59 -209 59h-264zM299 -588l10 94q83 7 133 45t62 103h-131l63 235
h283l-53 -198q-39 -144 -129.5 -210t-237.5 -69z" />
    <glyph glyph-name="rcommaaccent" unicode="&#x157;" horiz-adv-x="858" 
d="M-8 0l295 1098h311l-59 -221q88 128 188 189.5t229 51.5l-88 -325h-16q-331 0 -442 -404l-107 -389h-311zM-139 -598l10 94q83 7 133 45t62 103h-132l64 235h283l-54 -198q-39 -144 -129 -210t-237 -69z" />
    <glyph glyph-name="Rcaron" unicode="&#x158;" horiz-adv-x="1488" 
d="M920 0l-222 459h-235l-123 -459h-315l385 1434h522q310 0 454 -144q111 -111 111 -289q0 -208 -131 -339q-126 -126 -332 -173l244 -489h-358zM539 737h280q197 0 289 92q59 59 59 146q0 70 -45 115q-59 59 -209 59h-264zM1456 1847l-342 -301h-295l-182 301h229
l131 -114l193 114h266z" />
    <glyph glyph-name="rcaron" unicode="&#x159;" horiz-adv-x="858" 
d="M-8 0l295 1098h311l-59 -221q88 128 188 189.5t229 51.5l-88 -325h-16q-331 0 -442 -404l-107 -389h-311zM422 1219l-166 321h225l125 -135l199 135h250l-338 -321h-295z" />
    <glyph glyph-name="Sacute" unicode="&#x15a;" horiz-adv-x="1302" 
d="M604 -20q-419 0 -624 264l237 200q87 -95 184 -141.5t217 -46.5q96 0 158 41.5t62 108.5q0 53 -50 91.5t-194 96.5q-62 25 -109 49t-95 59t-78.5 73.5t-50 91.5t-19.5 114q0 182 127 309q78 78 194 121t248 43q337 0 537 -213l-218 -217q-87 79 -165.5 116.5t-178.5 37.5
q-95 0 -151.5 -44t-56.5 -102q0 -55 49 -90t202 -98q64 -26 112 -51t94 -59.5t75 -73t46.5 -90.5t17.5 -113q0 -184 -130 -314q-80 -80 -195 -121.5t-245 -41.5zM752 1567l335 321l261 -116l-334 -205h-262z" />
    <glyph glyph-name="sacute" unicode="&#x15b;" 
d="M444 -25q-132 0 -266.5 51t-226.5 148l180 186q147 -147 336 -147q62 0 96.5 25t34.5 71q0 29 -31.5 52t-95.5 51q-63 27 -100.5 45.5t-84.5 48.5t-72.5 60t-43.5 73t-18 94q0 168 120 276.5t320 108.5q125 0 241.5 -45.5t190.5 -111.5l-168 -197q-148 117 -287 117
q-57 0 -88.5 -25t-31.5 -68q0 -30 34 -55t111 -59q53 -23 87.5 -40.5t79 -47t70.5 -59t45 -72.5t19 -93q0 -177 -125.5 -282t-325.5 -105zM537 1219l329 362l262 -117l-329 -245h-262z" />
    <glyph glyph-name="Scedilla" unicode="&#x15e;" horiz-adv-x="1302" 
d="M387 -354l-231 108l233 246q-261 53 -409 244l237 200q87 -95 184 -141.5t217 -46.5q96 0 158 41.5t62 108.5q0 53 -50 91.5t-194 96.5q-62 25 -109 49t-95 59t-78.5 73.5t-50 91.5t-19.5 114q0 182 127 309q78 78 194 121t248 43q337 0 537 -213l-218 -217
q-87 79 -165.5 116.5t-178.5 37.5q-95 0 -151.5 -44t-56.5 -102q0 -55 49 -90t202 -98q64 -26 112 -51t94 -59.5t75 -73t46.5 -90.5t17.5 -113q0 -184 -130 -314q-160 -160 -434 -163z" />
    <glyph glyph-name="scedilla" unicode="&#x15f;" 
d="M252 -354l-232 108l236 246q-188 52 -305 174l180 186q147 -147 336 -147q62 0 96.5 25t34.5 71q0 29 -31.5 52t-95.5 51q-63 27 -100.5 45.5t-84.5 48.5t-72.5 60t-43.5 73t-18 94q0 168 120 276.5t320 108.5q125 0 241.5 -45.5t190.5 -111.5l-168 -197
q-148 117 -287 117q-57 0 -88.5 -25t-31.5 -68q0 -30 34 -55t111 -59q53 -23 87.5 -40.5t79 -47t70.5 -59t45 -72.5t19 -93q0 -171 -116.5 -274t-305.5 -111z" />
    <glyph glyph-name="Scaron" unicode="&#x160;" horiz-adv-x="1302" 
d="M604 -20q-419 0 -624 264l237 200q87 -95 184 -141.5t217 -46.5q96 0 158 41.5t62 108.5q0 53 -50 91.5t-194 96.5q-62 25 -109 49t-95 59t-78.5 73.5t-50 91.5t-19.5 114q0 182 127 309q78 78 194 121t248 43q337 0 537 -213l-218 -217q-87 79 -165.5 116.5t-178.5 37.5
q-95 0 -151.5 -44t-56.5 -102q0 -55 49 -90t202 -98q64 -26 112 -51t94 -59.5t75 -73t46.5 -90.5t17.5 -113q0 -184 -130 -314q-80 -80 -195 -121.5t-245 -41.5zM1393 1868l-342 -301h-295l-183 301h230l131 -115l192 115h267z" />
    <glyph glyph-name="scaron" unicode="&#x161;" 
d="M444 -25q-132 0 -266.5 51t-226.5 148l180 186q147 -147 336 -147q62 0 96.5 25t34.5 71q0 29 -31.5 52t-95.5 51q-63 27 -100.5 45.5t-84.5 48.5t-72.5 60t-43.5 73t-18 94q0 168 120 276.5t320 108.5q125 0 241.5 -45.5t190.5 -111.5l-168 -197q-148 117 -287 117
q-57 0 -88.5 -25t-31.5 -68q0 -30 34 -55t111 -59q53 -23 87.5 -40.5t79 -47t70.5 -59t45 -72.5t19 -93q0 -177 -125.5 -282t-325.5 -105zM475 1219l-166 321h226l124 -135l199 135h250l-338 -321h-295z" />
    <glyph glyph-name="Tcommaaccent" unicode="&#x162;" horiz-adv-x="1269" 
d="M326 0l307 1143h-436l77 291h1188l-78 -291h-436l-307 -1143h-315zM182 -598l11 94q169 15 194 148h-131l63 235h283l-53 -198q-39 -144 -129.5 -210t-237.5 -69z" />
    <glyph glyph-name="Tcommaaccent" unicode="&#x21a;" horiz-adv-x="1269" 
d="M326 0l307 1143h-436l77 291h1188l-78 -291h-436l-307 -1143h-315zM182 -598l11 94q169 15 194 148h-131l63 235h283l-53 -198q-39 -144 -129.5 -210t-237.5 -69z" />
    <glyph glyph-name="tcommaaccent" unicode="&#x163;" horiz-adv-x="849" 
d="M393 -18q-136 0 -208 60t-72 155q0 55 20 137l133 497h-131l72 267h131l76 280h311l-76 -280h258l-71 -267h-258l-123 -460q-9 -36 -9 -49q0 -66 84 -66q82 0 160 35l-72 -264q-95 -45 -225 -45zM27 -598l10 94q169 15 194 148h-131l64 235h282l-53 -198
q-39 -144 -129 -210t-237 -69z" />
    <glyph glyph-name="tcommaaccent" unicode="&#x21b;" horiz-adv-x="849" 
d="M393 -18q-136 0 -208 60t-72 155q0 55 20 137l133 497h-131l72 267h131l76 280h311l-76 -280h258l-71 -267h-258l-123 -460q-9 -36 -9 -49q0 -66 84 -66q82 0 160 35l-72 -264q-95 -45 -225 -45zM27 -598l10 94q169 15 194 148h-131l64 235h282l-53 -198
q-39 -144 -129 -210t-237 -69z" />
    <glyph glyph-name="Tcaron" unicode="&#x164;" horiz-adv-x="1269" 
d="M326 0l307 1143h-436l77 291h1188l-78 -291h-436l-307 -1143h-315zM1403 1847l-342 -301h-295l-182 301h229l131 -114l193 114h266z" />
    <glyph glyph-name="tcaron" unicode="&#x165;" horiz-adv-x="849" 
d="M393 -18q-136 0 -208 60t-72 155q0 55 20 137l133 497h-131l72 267h131l76 280h311l-76 -280h258l-71 -267h-258l-123 -460q-9 -36 -9 -49q0 -66 84 -66q82 0 160 35l-72 -264q-95 -45 -225 -45zM793 1212l112 426h244v-6l-234 -420h-122z" />
    <glyph glyph-name="Umacron" unicode="&#x16a;" horiz-adv-x="1564" 
d="M702 -23q-250 0 -393 128t-143 356q0 107 35 229l198 744h316l-207 -772q-23 -81 -23 -156q0 -108 65.5 -173t184.5 -65q141 0 234 90q93 93 139 267l217 809h315l-229 -854q-74 -279 -221 -426q-177 -177 -488 -177zM651 1556l60 220h778l-59 -220h-779z" />
    <glyph glyph-name="umacron" unicode="&#x16b;" horiz-adv-x="1271" 
d="M408 -20q-149 0 -236.5 85.5t-87.5 233.5q0 65 37 209l158 590h311l-162 -602q-14 -54 -14 -99q0 -66 39.5 -100.5t111.5 -34.5q89 0 150 58.5t88 160.5l166 617h311l-295 -1098h-311l31 115q-147 -135 -297 -135zM442 1229l58 215h737l-57 -215h-738z" />
    <glyph glyph-name="Ubreve" unicode="&#x16c;" horiz-adv-x="1564" 
d="M702 -23q-250 0 -393 128t-143 356q0 107 35 229l198 744h316l-207 -772q-23 -81 -23 -156q0 -108 65.5 -173t184.5 -65q141 0 234 90q93 93 139 267l217 809h315l-229 -854q-74 -279 -221 -426q-177 -177 -488 -177zM1026 1522q-166 0 -249.5 80t-59.5 225h198
q13 -101 154 -101q73 0 119.5 25.5t79.5 75.5h227q-52 -145 -177.5 -225t-291.5 -80z" />
    <glyph glyph-name="ubreve" unicode="&#x16d;" horiz-adv-x="1271" 
d="M408 -20q-149 0 -236.5 85.5t-87.5 233.5q0 65 37 209l158 590h311l-162 -602q-14 -54 -14 -99q0 -66 39.5 -100.5t111.5 -34.5q89 0 150 58.5t88 160.5l166 617h311l-295 -1098h-311l31 115q-147 -135 -297 -135zM836 1214q-89 0 -156.5 26.5t-106.5 72.5t-58 103
t-17 124h213q3 -53 39.5 -88t99.5 -35q76 0 123 31.5t86 91.5h215q-48 -145 -162.5 -235.5t-275.5 -90.5z" />
    <glyph glyph-name="Uring" unicode="&#x16e;" horiz-adv-x="1564" 
d="M702 -23q-250 0 -393 128t-143 356q0 107 35 229l198 744h316l-207 -772q-23 -81 -23 -156q0 -108 65.5 -173t184.5 -65q141 0 234 90q93 93 139 267l217 809h315l-229 -854q-74 -279 -221 -426q-177 -177 -488 -177zM1098 1942q97 0 164 -58.5t67 -140.5
q0 -106 -74.5 -180t-205.5 -74q-98 0 -165 58.5t-67 140.5q0 106 75 180t206 74zM1057 1597q65 0 106 41.5t41 92.5q0 46 -31.5 74t-82.5 28q-65 0 -106.5 -41t-41.5 -92q0 -46 32 -74.5t83 -28.5z" />
    <glyph glyph-name="uring" unicode="&#x16f;" horiz-adv-x="1271" 
d="M408 -20q-149 0 -236.5 85.5t-87.5 233.5q0 65 37 209l158 590h311l-162 -602q-14 -54 -14 -99q0 -66 39.5 -100.5t111.5 -34.5q89 0 150 58.5t88 160.5l166 617h311l-295 -1098h-311l31 115q-147 -135 -297 -135zM1100 1454q0 -108 -76 -189t-188 -81q-101 0 -163.5 60
t-62.5 149q0 108 76 189t188 81q101 0 163.5 -60t62.5 -149zM729 1403q0 -53 31.5 -84t79.5 -31q60 0 100.5 48t40.5 108q0 53 -31.5 84t-79.5 31q-60 0 -100.5 -48t-40.5 -108z" />
    <glyph glyph-name="Uhungarumlaut" unicode="&#x170;" horiz-adv-x="1564" 
d="M702 -23q-250 0 -393 128t-143 356q0 107 35 229l198 744h316l-207 -772q-23 -81 -23 -156q0 -108 65.5 -173t184.5 -65q141 0 234 90q93 93 139 267l217 809h315l-229 -854q-74 -279 -221 -426q-177 -177 -488 -177zM659 1546l336 322l250 -117l-334 -205h-252z
M1061 1546l336 322l250 -117l-334 -205h-252z" />
    <glyph glyph-name="uhungarumlaut" unicode="&#x171;" horiz-adv-x="1271" 
d="M408 -20q-149 0 -236.5 85.5t-87.5 233.5q0 65 37 209l158 590h311l-162 -602q-14 -54 -14 -99q0 -66 39.5 -100.5t111.5 -34.5q89 0 150 58.5t88 160.5l166 617h311l-295 -1098h-311l31 115q-147 -135 -297 -135zM379 1219l326 362l231 -117l-330 -245h-227zM778 1219
l330 362l231 -117l-333 -245h-228z" />
    <glyph glyph-name="Uogonek" unicode="&#x172;" horiz-adv-x="1564" 
d="M788 -199l-36 -137q-52 -8 -109 -8q-101 0 -159 36t-58 101q0 90 121 201q-181 35 -281 156.5t-100 310.5q0 107 35 229l198 744h316l-207 -772q-23 -81 -23 -156q0 -108 65.5 -173t184.5 -65q141 0 234 90q93 93 139 267l217 809h315l-229 -854q-74 -279 -221 -426
q-168 -168 -455 -177q-67 -73 -67 -118q0 -32 28.5 -45t91.5 -13z" />
    <glyph glyph-name="uogonek" unicode="&#x173;" horiz-adv-x="1271" 
d="M977 -199l-37 -137q-52 -8 -109 -8q-101 0 -159 36t-58 101q0 92 129 207h-69l31 115q-147 -135 -297 -135q-149 0 -236.5 85.5t-87.5 233.5q0 65 37 209l158 590h311l-162 -602q-14 -54 -14 -99q0 -66 39.5 -100.5t111.5 -34.5q89 0 150 58.5t88 160.5l166 617h311
l-295 -1098h-39q-90 -90 -90 -141q0 -32 29 -45t92 -13z" />
    <glyph glyph-name="Wcircumflex" unicode="&#x174;" horiz-adv-x="2269" 
d="M369 -10l-103 1444h328l37 -971l577 975h271l65 -975l557 971h357l-877 -1444h-293l-69 919l-562 -919h-288zM950 1546l342 301h295l182 -301h-229l-131 115l-192 -115h-267z" />
    <glyph glyph-name="wcircumflex" unicode="&#x175;" horiz-adv-x="1755" 
d="M223 -8l-41 1106h316l-2 -666l385 670h268l29 -672l360 668h309l-639 -1106h-280l-31 674l-395 -674h-279zM633 1219l338 321h295l166 -321h-226l-125 135l-198 -135h-250z" />
    <glyph glyph-name="Ycircumflex" unicode="&#x176;" horiz-adv-x="1331" 
d="M346 0l152 565l-297 869h350l168 -594l491 594h381l-784 -897l-145 -537h-316zM477 1546l342 301h295l182 -301h-229l-131 115l-193 -115h-266z" />
    <glyph glyph-name="ycircumflex" unicode="&#x177;" horiz-adv-x="1212" 
d="M326 -8l-136 1106h318l51 -746l412 746h336l-680 -1125q-107 -167 -210 -237t-243 -70q-146 0 -256 76l166 225q57 -43 121 -43q37 0 63.5 14t57.5 54zM354 1219l338 321h295l166 -321h-225l-125 135l-199 -135h-250z" />
    <glyph glyph-name="Ydieresis" unicode="&#x178;" horiz-adv-x="1331" 
d="M346 0l152 565l-297 869h350l168 -594l491 594h381l-784 -897l-145 -537h-316zM530 1546l72 260h299l-72 -260h-299zM977 1546l72 260h299l-72 -260h-299z" />
    <glyph glyph-name="Zacute" unicode="&#x179;" horiz-adv-x="1411" 
d="M-39 0l64 240l1007 917h-737l76 277h1163l-66 -240l-1007 -918h768l-74 -276h-1194zM813 1546l336 322l260 -117l-334 -205h-262z" />
    <glyph glyph-name="zacute" unicode="&#x17a;" horiz-adv-x="1140" 
d="M-55 0l59 219l719 627h-533l68 252h930l-60 -219l-720 -627h559l-68 -252h-954zM590 1219l330 362l262 -117l-330 -245h-262z" />
    <glyph glyph-name="Zdotaccent" unicode="&#x17b;" horiz-adv-x="1411" 
d="M-39 0l64 240l1007 917h-737l76 277h1163l-66 -240l-1007 -918h768l-74 -276h-1194zM795 1546l71 260h308l-72 -260h-307z" />
    <glyph glyph-name="zdotaccent" unicode="&#x17c;" horiz-adv-x="1140" 
d="M-55 0l59 219l719 627h-533l68 252h930l-60 -219l-720 -627h559l-68 -252h-954zM565 1219l76 276h307l-76 -276h-307z" />
    <glyph glyph-name="Zcaron" unicode="&#x17d;" horiz-adv-x="1411" 
d="M-39 0l64 240l1007 917h-737l76 277h1163l-66 -240l-1007 -918h768l-74 -276h-1194zM1454 1847l-342 -301h-295l-182 301h229l131 -114l193 114h266z" />
    <glyph glyph-name="zcaron" unicode="&#x17e;" horiz-adv-x="1140" 
d="M-55 0l59 219l719 627h-533l68 252h930l-60 -219l-720 -627h559l-68 -252h-954zM528 1219l-166 321h226l125 -135l198 135h250l-338 -321h-295z" />
    <glyph glyph-name="uni018F" unicode="&#x18f;" horiz-adv-x="1630" 
d="M137 530q0 152 68 324h1065q-6 135 -96.5 222t-260.5 87q-195 0 -401 -135l-152 246q281 180 570 180q297 0 474 -171t177 -458q0 -167 -63.5 -323t-182.5 -275q-252 -252 -602 -252q-276 0 -436 152.5t-160 402.5zM1102 403q85 85 127 187h-774q-9 -41 -9 -70
q0 -50 17 -94.5t51.5 -82.5t96 -60.5t143.5 -22.5q111 0 200.5 42.5t147.5 100.5z" />
    <glyph glyph-name="florin" unicode="&#x192;" horiz-adv-x="1112" 
d="M125 -18q-99 0 -184 18l67 250q49 -12 96 -12q95 0 152 127l152 340h-148l70 256h192l78 176q137 315 418 315q153 0 250 -41l-68 -254q-74 33 -160 33q-60 0 -102 -36t-74 -107l-39 -86h246l-70 -256h-290l-193 -435q-127 -288 -393 -288z" />
    <glyph glyph-name="Aringacute" unicode="&#x1fa;" horiz-adv-x="1566" 
d="M-117 0l957 1380q-37 53 -37 111q0 106 74.5 180t205.5 74q98 0 165 -58.5t67 -140.5q0 -64 -29 -119t-82 -90l211 -1337h-323l-45 322h-607l-217 -322h-340zM629 600h381l-66 473zM981 1802l336 281l260 -117l-334 -164h-262zM1042 1401q65 0 106.5 41t41.5 92
q0 46 -32 74t-83 28q-65 0 -106 -41t-41 -92q0 -46 31.5 -74t82.5 -28z" />
    <glyph glyph-name="aringacute" unicode="&#x1fb;" horiz-adv-x="1204" 
d="M788 1763l326 301l258 -116l-330 -185h-254zM334 -20q-142 0 -231 82.5t-89 211.5q0 160 105 265q131 131 368 131q155 0 310 -49l4 14q12 50 12 82q0 129 -207 129q-148 0 -293 -60l-49 246q188 78 408 78q219 0 331.5 -87.5t112.5 -250.5q0 -72 -24 -166l-162 -606
h-301l33 127q-138 -147 -328 -147zM467 193q94 0 171.5 64.5t104.5 156.5l9 28q-103 39 -205 39q-117 0 -178 -61q-45 -45 -45 -111q0 -52 39 -84t104 -32zM1075 1485q0 -108 -76 -189.5t-188 -81.5q-101 0 -163 59.5t-62 149.5q0 108 76 189.5t188 81.5q101 0 163 -59.5
t62 -149.5zM705 1434q0 -53 31 -84t79 -31q60 0 100.5 48t40.5 108q0 53 -31 83.5t-79 30.5q-61 0 -101 -47.5t-40 -107.5z" />
    <glyph glyph-name="AEacute" unicode="&#x1fc;" horiz-adv-x="2166" 
d="M-125 0l1157 1434h1254l-76 -281h-717l-78 -293h625l-76 -276h-625l-82 -303h730l-76 -281h-1041l86 322h-483l-256 -322h-342zM696 600h336l150 561h-39zM1350 1546l336 322l260 -117l-334 -205h-262z" />
    <glyph glyph-name="aeacute" unicode="&#x1fd;" horiz-adv-x="1925" 
d="M365 -20q-166 0 -258.5 80t-92.5 214q0 160 105 265q131 131 368 131q155 0 310 -49l4 14q12 50 12 82q0 129 -207 129q-148 0 -293 -60l-49 246q188 78 408 78q268 0 360 -162q170 170 395 170q201 0 320 -120.5t119 -307.5q0 -116 -56 -250h-753q8 -101 70.5 -158
t181.5 -57q117 0 243 88l144 -192q-72 -66 -182.5 -106t-239.5 -40q-142 0 -249.5 53.5t-168.5 157.5q-200 -206 -491 -206zM487 193q75 0 163 37t153 102q-9 43 -12 94q-124 55 -244 55q-117 0 -178 -61q-45 -45 -45 -111q0 -53 42 -84.5t121 -31.5zM971 1219l329 362
l263 -117l-330 -245h-262zM1174 776q-59 -59 -89 -141h478q10 33 10 72q0 72 -44.5 116.5t-135.5 44.5q-127 0 -219 -92z" />
    <glyph glyph-name="Oslashacute" unicode="&#x1fe;" horiz-adv-x="1703" 
d="M999 1458q250 0 424 -137l136 123h301l-299 -277q94 -156 94 -344q0 -164 -66 -321t-186 -277q-118 -118 -273 -184t-337 -66q-252 0 -426 138l-134 -123h-301l299 274q-94 151 -94 346q0 164 66 321t186 277q118 118 273 184t337 66zM453 629q0 -90 26 -158l709 651
q-88 60 -223 60q-194 0 -340 -146q-81 -81 -126.5 -190.5t-45.5 -216.5zM827 252q196 0 340 147q81 78 126.5 188.5t45.5 219.5q0 78 -26 154l-709 -650q89 -59 223 -59zM956 1567l336 321l260 -116l-333 -205h-263z" />
    <glyph glyph-name="oslashacute" unicode="&#x1ff;" horiz-adv-x="1335" 
d="M-100 -12l252 229q-66 117 -66 266q0 124 50 240.5t140 206.5q89 89 203.5 138.5t241.5 49.5q205 0 342 -106l100 94h273l-254 -229q67 -113 67 -267q0 -123 -50 -239.5t-140 -206.5q-89 -89 -203.5 -139t-241.5 -50q-202 0 -342 105l-100 -92h-272zM694 1219l330 362
l262 -117l-330 -245h-262zM381 492q0 -42 6 -80l459 419q-54 31 -131 31q-123 0 -215 -92q-56 -56 -87.5 -131.5t-31.5 -146.5zM621 231q122 0 215 93q56 56 87 131.5t31 146.5q0 47 -8 80l-459 -422q54 -29 134 -29z" />
    <glyph glyph-name="Scommaaccent" unicode="&#x218;" horiz-adv-x="1302" 
d="M604 -20q-419 0 -624 264l237 200q87 -95 184 -141.5t217 -46.5q96 0 158 41.5t62 108.5q0 53 -50 91.5t-194 96.5q-62 25 -109 49t-95 59t-78.5 73.5t-50 91.5t-19.5 114q0 182 127 309q78 78 194 121t248 43q337 0 537 -213l-218 -217q-87 79 -165.5 116.5t-178.5 37.5
q-95 0 -151.5 -44t-56.5 -102q0 -55 49 -90t202 -98q64 -26 112 -51t94 -59.5t75 -73t46.5 -90.5t17.5 -113q0 -184 -130 -314q-80 -80 -195 -121.5t-245 -41.5zM203 -608l10 94q83 8 133 45.5t62 101.5h-132l64 236h283l-54 -199q-39 -144 -129 -209.5t-237 -68.5z" />
    <glyph glyph-name="scommaaccent" unicode="&#x219;" 
d="M444 -25q-132 0 -266.5 51t-226.5 148l180 186q147 -147 336 -147q62 0 96.5 25t34.5 71q0 29 -31.5 52t-95.5 51q-63 27 -100.5 45.5t-84.5 48.5t-72.5 60t-43.5 73t-18 94q0 168 120 276.5t320 108.5q125 0 241.5 -45.5t190.5 -111.5l-168 -197q-148 117 -287 117
q-57 0 -88.5 -25t-31.5 -68q0 -30 34 -55t111 -59q53 -23 87.5 -40.5t79 -47t70.5 -59t45 -72.5t19 -93q0 -177 -125.5 -282t-325.5 -105zM57 -598l11 94q169 15 194 148h-131l64 235h282l-53 -198q-39 -144 -129.5 -210t-237.5 -69z" />
    <glyph glyph-name="schwa" unicode="&#x259;" horiz-adv-x="1243" 
d="M63 408q0 115 56 249h751q-8 101 -69 158t-180 57q-118 0 -244 -88l-144 193q173 145 422 145q236 0 372 -130t136 -357q0 -128 -52 -251.5t-146 -217.5q-186 -186 -453 -186q-209 0 -329 120t-120 308zM756 322q58 58 88 141h-477q-11 -37 -11 -72q0 -72 45 -117
t136 -45q126 0 219 93z" />
    <glyph glyph-name="circumflex" unicode="&#x2c6;" 
d="M293 1219l338 321h295l166 -321h-226l-125 135l-198 -135h-250z" />
    <glyph glyph-name="caron" unicode="&#x2c7;" 
d="M537 1219l-166 321h225l125 -135l199 135h249l-338 -321h-294z" />
    <glyph glyph-name="breve" unicode="&#x2d8;" 
d="M725 1214q-89 0 -156.5 26.5t-106.5 72.5t-58 103t-17 124h213q3 -53 39.5 -88t99.5 -35q76 0 123 31.5t86 91.5h215q-48 -145 -162.5 -235.5t-275.5 -90.5z" />
    <glyph glyph-name="dotaccent" unicode="&#x2d9;" 
d="M541 1219l75 276h308l-76 -276h-307z" />
    <glyph glyph-name="ring" unicode="&#x2da;" 
d="M999 1485q0 -108 -76 -189.5t-188 -81.5q-101 0 -163 59.5t-62 149.5q0 108 76 189.5t188 81.5q101 0 163 -59.5t62 -149.5zM629 1434q0 -53 31 -84t79 -31q61 0 101.5 48t40.5 108q0 53 -31 83.5t-80 30.5q-61 0 -101 -47.5t-40 -107.5z" />
    <glyph glyph-name="ogonek" unicode="&#x2db;" 
d="M535 -199l-37 -137q-52 -8 -109 -8q-101 0 -159 36t-58 101q0 97 154 227h198q-60 -60 -85 -95t-25 -66q0 -32 29 -45t92 -13z" />
    <glyph glyph-name="tilde" unicode="&#x2dc;" 
d="M1006 1552l165 -55q-63 -143 -127.5 -210.5t-164.5 -67.5q-75 0 -179 45q-85 34 -114 34q-44 0 -72.5 -23t-62.5 -77l-166 55q63 143 128 211t165 68q74 0 178 -45q6 -2 21 -8.5t21.5 -9t18.5 -6.5t19 -6t16.5 -3.5t17.5 -1.5q45 0 74 23t62 77z" />
    <glyph glyph-name="hungarumlaut" unicode="&#x2dd;" 
d="M252 1219l326 362l231 -117l-330 -245h-227zM651 1219l330 362l231 -117l-333 -245h-228z" />
    <glyph glyph-name="commaaccent" unicode="&#x326;" 
d="M61 -598l11 94q169 15 194 148h-131l64 235h282l-53 -198q-39 -144 -129.5 -210t-237.5 -69z" />
    <glyph glyph-name="uni0384" unicode="&#x384;" 
d="M512 1219l254 372l254 -114l-275 -258h-233z" />
    <glyph glyph-name="uni0385" unicode="&#x385;" 
d="M891 1219l74 272h262l-74 -272h-262zM231 1219l74 272h262l-73 -272h-263zM535 1219l200 426l264 -60l-274 -366h-190z" />
    <glyph glyph-name="uni0386" unicode="&#x386;" horiz-adv-x="1566" 
d="M-117 0l1002 1444h303l227 -1444h-323l-45 322h-607l-217 -322h-340zM629 600h381l-66 473zM154 1014l129 430h327l-272 -430h-184z" />
    <glyph glyph-name="uni0387" unicode="&#x387;" horiz-adv-x="606" 
d="M199 770l86 328h331l-86 -328h-331z" />
    <glyph glyph-name="uni0388" unicode="&#x388;" horiz-adv-x="1361" 
d="M25 0l385 1434h1071l-76 -281h-758l-78 -293h666l-76 -276h-665l-82 -303h770l-76 -281h-1081zM-123 1004l129 430h328l-273 -430h-184z" />
    <glyph glyph-name="uni0389" unicode="&#x389;" horiz-adv-x="1548" 
d="M25 0l385 1434h315l-152 -568h574l151 568h316l-385 -1434h-316l156 575h-573l-156 -575h-315zM-143 1004l129 430h327l-272 -430h-184z" />
    <glyph glyph-name="uni038A" unicode="&#x38a;" horiz-adv-x="688" 
d="M39 0l385 1434h315l-385 -1434h-315zM-123 1004l129 430h328l-273 -430h-184z" />
    <glyph glyph-name="uni038C" unicode="&#x38c;" horiz-adv-x="1703" 
d="M999 1458q145 0 268.5 -49t208 -133.5t132 -201.5t47.5 -251q0 -164 -66 -321t-186 -277q-118 -118 -273 -184t-337 -66q-145 0 -268.5 49t-208 133.5t-132 201.5t-47.5 251q0 164 66 321t186 277q118 118 273 184t337 66zM829 266q190 0 332 142q77 77 121.5 184
t44.5 211q0 164 -95.5 264t-268.5 100q-191 0 -332 -141q-77 -77 -121.5 -184t-44.5 -211q0 -164 95.5 -264.5t268.5 -100.5zM-102 1028l129 430h327l-272 -430h-184z" />
    <glyph glyph-name="uni038E" unicode="&#x38e;" horiz-adv-x="1331" 
d="M346 0l152 565l-297 869h350l168 -594l491 594h381l-784 -897l-145 -537h-316zM-281 1004l129 430h328l-272 -430h-185z" />
    <glyph glyph-name="uni038F" unicode="&#x38f;" horiz-adv-x="1773" 
d="M1016 1167q-207 0 -336 -129q-145 -145 -145 -387q0 -217 147 -387l-72 -264h-612l72 268h327q-82 99 -133 208t-51 247q0 145 53 273t152 227q111 111 269.5 173t348.5 62q307 0 482.5 -155.5t175.5 -405.5q0 -187 -103.5 -340.5t-294.5 -288.5h314l-72 -268h-657
l71 264q84 53 154.5 113.5t131 134t94.5 159.5t34 175q0 147 -94 234t-256 87zM-90 1028l129 430h328l-273 -430h-184z" />
    <glyph glyph-name="uni0390" unicode="&#x390;" horiz-adv-x="673" 
d="M74 225q0 82 35 211l176 662h311l-193 -719q-12 -54 -12 -74q0 -32 23 -46.5t73 -14.5q24 0 60 4l-66 -240q-75 -20 -149 -20q-129 0 -193.5 62.5t-64.5 174.5zM688 1219l74 272h262l-74 -272h-262zM29 1219l73 272h263l-74 -272h-262zM332 1219l200 426l265 -60
l-275 -366h-190z" />
    <glyph glyph-name="uni0391" unicode="&#x391;" horiz-adv-x="1566" 
d="M-117 0l1002 1444h303l227 -1444h-323l-45 322h-607l-217 -322h-340zM629 600h381l-66 473z" />
    <glyph glyph-name="uni0392" unicode="&#x392;" horiz-adv-x="1468" 
d="M25 0l385 1434h557q241 0 363 -99t122 -254q0 -139 -82.5 -230.5t-224.5 -123.5q201 -93 201 -291q0 -197 -162.5 -316.5t-454.5 -119.5h-704zM406 276h370q118 0 187 49t69 132q0 64 -50.5 99.5t-145.5 35.5h-347zM561 854h318q124 0 191 43.5t67 130.5q0 59 -49.5 94
t-149.5 35h-297z" />
    <glyph glyph-name="uni0393" unicode="&#x393;" horiz-adv-x="1280" 
d="M25 0l385 1434h1030l-78 -287h-715l-307 -1147h-315z" />
    <glyph glyph-name="uni0394" unicode="&#x394;" horiz-adv-x="1603" 
d="M1206 1444l221 -1217l-86 -227h-1370l37 227l871 1217h327zM958 1081l-550 -802h677z" />
    <glyph glyph-name="uni0395" unicode="&#x395;" horiz-adv-x="1361" 
d="M25 0l385 1434h1071l-76 -281h-758l-78 -293h666l-76 -276h-665l-82 -303h770l-76 -281h-1081z" />
    <glyph glyph-name="uni0396" unicode="&#x396;" horiz-adv-x="1411" 
d="M-39 0l64 240l1007 917h-737l76 277h1163l-66 -240l-1007 -918h768l-74 -276h-1194z" />
    <glyph glyph-name="uni0397" unicode="&#x397;" horiz-adv-x="1548" 
d="M25 0l385 1434h315l-152 -568h574l151 568h316l-385 -1434h-316l156 575h-573l-156 -575h-315z" />
    <glyph glyph-name="uni0398" unicode="&#x398;" horiz-adv-x="1703" 
d="M137 610q0 164 66 321t186 277q118 118 273 184t337 66q145 0 268.5 -49t208 -133.5t132 -201.5t47.5 -251q0 -164 -66 -321t-186 -277q-118 -118 -273 -184t-337 -66q-145 0 -268.5 49t-208 133.5t-132 201.5t-47.5 251zM455 631q0 -166 98.5 -267.5t275.5 -101.5
q194 0 340 146q78 78 123 184t45 211q0 166 -98.5 267t-275.5 101q-195 0 -340 -145q-78 -78 -123 -184t-45 -211zM1210 864l-75 -284h-549l76 284h548z" />
    <glyph glyph-name="uni0399" unicode="&#x399;" horiz-adv-x="688" 
d="M39 0l385 1434h315l-385 -1434h-315z" />
    <glyph glyph-name="uni039A" unicode="&#x39a;" horiz-adv-x="1488" 
d="M25 0l385 1434h315l-170 -635l709 635h426l-699 -600l338 -834h-346l-242 645l-297 -254l-104 -391h-315z" />
    <glyph glyph-name="uni039B" unicode="&#x39b;" horiz-adv-x="1523" 
d="M1151 1444l207 -1444h-338l-121 991l-653 -991h-355l981 1444h279z" />
    <glyph glyph-name="uni039C" unicode="&#x39c;" horiz-adv-x="1765" 
d="M25 0l385 1434h321l207 -607l535 607h358l-385 -1434h-313l249 936l-561 -612h-8l-229 606l-250 -930h-309z" />
    <glyph glyph-name="uni039D" unicode="&#x39d;" horiz-adv-x="1609" 
d="M25 0l385 1434h290l418 -912l246 912h311l-385 -1434h-268l-434 940l-252 -940h-311z" />
    <glyph glyph-name="uni039E" unicode="&#x39e;" horiz-adv-x="1343" 
d="M1163 285l-76 -285h-1122l76 285h1122zM1462 1434l-78 -285h-1101l77 285h1102zM1257 862l-75 -280h-1000l76 280h999z" />
    <glyph glyph-name="uni039F" unicode="&#x39f;" horiz-adv-x="1703" 
d="M999 1458q145 0 268.5 -49t208 -133.5t132 -201.5t47.5 -251q0 -164 -66 -321t-186 -277q-118 -118 -273 -184t-337 -66q-145 0 -268.5 49t-208 133.5t-132 201.5t-47.5 251q0 164 66 321t186 277q118 118 273 184t337 66zM829 266q190 0 332 142q77 77 121.5 184
t44.5 211q0 164 -95.5 264t-268.5 100q-191 0 -332 -141q-77 -77 -121.5 -184t-44.5 -211q0 -164 95.5 -264.5t268.5 -100.5z" />
    <glyph glyph-name="uni03A0" unicode="&#x3a0;" horiz-adv-x="1538" 
d="M25 0l385 1434h1194l-385 -1434h-316l307 1147h-563l-307 -1147h-315z" />
    <glyph glyph-name="uni03A1" unicode="&#x3a1;" horiz-adv-x="1390" 
d="M25 0l385 1434h454q156 0 265 -34.5t186 -111.5q110 -110 110 -295q0 -219 -145 -364q-95 -95 -237.5 -145t-313.5 -50h-272l-117 -434h-315zM1051 1087q-62 62 -199 62h-205l-117 -438h215q191 0 285 94q66 66 66 162q0 75 -45 120z" />
    <glyph glyph-name="uni03A3" unicode="&#x3a3;" horiz-adv-x="1384" 
d="M1038 705l-520 -429h709l-74 -276h-1186l64 233l622 504l-360 463l63 234h1141l-76 -277h-719z" />
    <glyph glyph-name="uni03A4" unicode="&#x3a4;" horiz-adv-x="1269" 
d="M326 0l307 1143h-436l77 291h1188l-78 -291h-436l-307 -1143h-315z" />
    <glyph glyph-name="uni03A5" unicode="&#x3a5;" horiz-adv-x="1331" 
d="M346 0l152 565l-297 869h350l168 -594l491 594h381l-784 -897l-145 -537h-316z" />
    <glyph glyph-name="uni03A6" unicode="&#x3a6;" horiz-adv-x="1988" 
d="M1079 1450h316l-39 -143q263 -27 421 -167t158 -356q0 -237 -166 -403q-118 -118 -306.5 -184t-424.5 -72l-37 -141h-315l39 145q-264 27 -423 167.5t-159 356.5q0 238 166 404q118 118 307 184t426 70zM469 672q0 -119 87 -192t247 -83l172 645q-278 -9 -414 -145
q-92 -92 -92 -225zM1610 766q0 118 -86.5 190t-245.5 84l-174 -645q274 6 414 146q92 92 92 225z" />
    <glyph glyph-name="uni03A7" unicode="&#x3a7;" horiz-adv-x="1433" 
d="M-104 0l692 743l-307 691h354l180 -461l402 461h403l-674 -725l318 -709h-355l-192 481l-418 -481h-403z" />
    <glyph glyph-name="uni03A8" unicode="&#x3a8;" horiz-adv-x="1742" 
d="M961 1434h303l-230 -848q169 3 252 86q69 69 109 215l147 547h311l-161 -598q-66 -236 -185 -355q-183 -183 -546 -186l-78 -295h-312l80 303q-208 25 -325 135t-117 291q0 103 43 264l119 441h311l-125 -461q-37 -148 -37 -201q0 -88 50.5 -132.5t160.5 -51.5z" />
    <glyph glyph-name="uni03A9" unicode="&#x3a9;" horiz-adv-x="1773" 
d="M1016 1167q-207 0 -336 -129q-145 -145 -145 -387q0 -217 147 -387l-72 -264h-612l72 268h327q-82 99 -133 208t-51 247q0 145 53 273t152 227q111 111 269.5 173t348.5 62q307 0 482.5 -155.5t175.5 -405.5q0 -187 -103.5 -340.5t-294.5 -288.5h314l-72 -268h-657
l71 264q84 53 154.5 113.5t131 134t94.5 159.5t34 175q0 147 -94 234t-256 87z" />
    <glyph glyph-name="uni03AA" unicode="&#x3aa;" horiz-adv-x="688" 
d="M39 0l385 1434h315l-385 -1434h-315zM238 1546l71 260h299l-71 -260h-299zM684 1546l72 260h299l-72 -260h-299z" />
    <glyph glyph-name="uni03AB" unicode="&#x3ab;" horiz-adv-x="1331" 
d="M346 0l152 565l-297 869h350l168 -594l491 594h381l-784 -897l-145 -537h-316zM530 1546l72 260h299l-72 -260h-299zM977 1546l72 260h299l-72 -260h-299z" />
    <glyph glyph-name="uni03AC" unicode="&#x3ac;" horiz-adv-x="1468" 
d="M522 -20q-193 0 -313.5 126t-120.5 345q0 146 52.5 271.5t144.5 217.5q85 85 191 131.5t218 46.5q123 0 204.5 -46t139.5 -134l41 160h312l-193 -719q-12 -54 -12 -74q0 -32 23 -46.5t73 -14.5q23 0 59 4l-65 -240q-75 -20 -150 -20q-90 0 -149.5 38.5t-81.5 106.5
q-88 -85 -179 -119t-194 -34zM639 242q119 0 213 94q119 119 119 287q0 104 -66.5 168.5t-169.5 64.5q-117 0 -209 -92q-116 -116 -116 -293q0 -107 62 -168t167 -61zM737 1219l254 372l254 -114l-274 -258h-234z" />
    <glyph glyph-name="uni03AD" unicode="&#x3ad;" horiz-adv-x="1196" 
d="M328 567q-133 75 -133 207q0 140 137 242t364 102q297 0 500 -184l-178 -199q-145 133 -330 133q-94 0 -144 -30.5t-50 -85.5q0 -44 34.5 -67t124.5 -23h209l-59 -224h-225q-107 0 -158 -26t-51 -84q0 -103 190 -103q194 0 375 94l92 -227q-91 -52 -226 -84.5t-263 -32.5
q-228 0 -357 83.5t-129 217.5q0 110 73 183t204 108zM606 1219l254 372l254 -114l-274 -258h-234z" />
    <glyph glyph-name="uni03AE" unicode="&#x3ae;" horiz-adv-x="1273" 
d="M-8 0l295 1098h311l-31 -115q150 135 299 135t236.5 -85.5t87.5 -233.5q0 -65 -37 -209l-246 -918h-311l250 930q14 54 14 98q0 66 -39.5 101t-111.5 35q-91 0 -152 -59t-88 -161l-166 -616h-311zM705 1219l253 372l254 -114l-274 -258h-233z" />
    <glyph glyph-name="uni03AF" unicode="&#x3af;" horiz-adv-x="673" 
d="M74 225q0 82 35 211l176 662h311l-193 -719q-12 -54 -12 -74q0 -32 23 -46.5t73 -14.5q24 0 60 4l-66 -240q-75 -20 -149 -20q-129 0 -193.5 62.5t-64.5 174.5zM342 1219l254 372l254 -114l-275 -258h-233z" />
    <glyph glyph-name="uni03B0" unicode="&#x3b0;" horiz-adv-x="1271" 
d="M541 -23q-209 0 -329 97t-120 266q0 83 29 190l151 568h312l-158 -588q-23 -94 -23 -133q0 -133 162 -133q103 0 164 61q56 56 86 172l166 621h311l-176 -660q-55 -202 -166 -313q-148 -148 -409 -148zM1012 1219l73 272h263l-74 -272h-262zM352 1219l74 272h262
l-74 -272h-262zM655 1219l201 426l264 -60l-274 -366h-191z" />
    <glyph glyph-name="uni03B1" unicode="&#x3b1;" horiz-adv-x="1468" 
d="M522 -20q-193 0 -313.5 126t-120.5 345q0 146 52.5 271.5t144.5 217.5q85 85 191 131.5t218 46.5q123 0 204.5 -46t139.5 -134l41 160h312l-193 -719q-12 -54 -12 -74q0 -32 23 -46.5t73 -14.5q23 0 59 4l-65 -240q-75 -20 -150 -20q-90 0 -149.5 38.5t-81.5 106.5
q-88 -85 -179 -119t-194 -34zM639 242q119 0 213 94q119 119 119 287q0 104 -66.5 168.5t-169.5 64.5q-117 0 -209 -92q-116 -116 -116 -293q0 -107 62 -168t167 -61z" />
    <glyph glyph-name="uni03B2" unicode="&#x3b2;" horiz-adv-x="1372" 
d="M741 -20q-147 0 -240 48.5t-155 131.5l-131 -488h-311l348 1307q38 140 82 226.5t110 152.5q151 151 424 151q221 0 353.5 -113.5t132.5 -287.5q0 -150 -90 -249t-267 -142q238 -97 238 -318q0 -181 -142 -300t-352 -119zM700 240q108 0 169 57t61 141q0 89 -82.5 140
t-261.5 51h-119l-18 -70q-13 -57 -13 -94q0 -110 73 -167.5t191 -57.5zM555 956l-29 -108h179q196 0 284 88q58 58 58 147q0 73 -50 121.5t-143 48.5q-113 0 -186 -73q-71 -71 -113 -224z" />
    <glyph glyph-name="uni03B3" unicode="&#x3b3;" horiz-adv-x="1208" 
d="M516 -328h-311l98 373l-131 1053h320l49 -723l436 723h334l-697 -1057z" />
    <glyph glyph-name="uni03B4" unicode="&#x3b4;" horiz-adv-x="1325" 
d="M819 1249l135 -145q69 -74 114 -131t85 -126t59 -143t19 -157q0 -117 -42.5 -222t-121.5 -184q-77 -77 -187.5 -121.5t-240.5 -44.5q-112 0 -205 28t-156.5 76t-107.5 111.5t-64 133t-20 143.5q0 211 128 356.5t398 237.5l-180 201l62 233h841l-67 -254zM928 537
q0 154 -146 331q-113 -37 -192 -81.5t-122.5 -95t-62 -101.5t-18.5 -111q0 -99 66.5 -170t187.5 -71q122 0 201 79q86 86 86 220z" />
    <glyph glyph-name="uni03B5" unicode="&#x3b5;" horiz-adv-x="1196" 
d="M328 567q-133 75 -133 207q0 140 137 242t364 102q297 0 500 -184l-178 -199q-145 133 -330 133q-94 0 -144 -30.5t-50 -85.5q0 -44 34.5 -67t124.5 -23h209l-59 -224h-225q-107 0 -158 -26t-51 -84q0 -103 190 -103q194 0 375 94l92 -227q-91 -52 -226 -84.5t-263 -32.5
q-228 0 -357 83.5t-129 217.5q0 110 73 183t204 108z" />
    <glyph glyph-name="uni03B6" unicode="&#x3b6;" horiz-adv-x="1159" 
d="M1266 1255l-699 -569q-100 -81 -141 -133.5t-41 -106.5q0 -58 44.5 -93.5t158.5 -59.5l389 -84l-125 -471h-291l74 270l-193 41q-204 43 -293.5 133.5t-89.5 229.5q0 128 76 235.5t254 249.5l430 342h-448l67 256h891z" />
    <glyph glyph-name="uni03B7" unicode="&#x3b7;" horiz-adv-x="1273" 
d="M-8 0l295 1098h311l-31 -115q150 135 299 135t236.5 -85.5t87.5 -233.5q0 -65 -37 -209l-246 -918h-311l250 930q14 54 14 98q0 66 -39.5 101t-111.5 35q-91 0 -152 -59t-88 -161l-166 -616h-311z" />
    <glyph glyph-name="uni03B8" unicode="&#x3b8;" horiz-adv-x="1357" 
d="M586 -25q-116 0 -205.5 41.5t-143.5 115.5t-81 170.5t-27 211.5q0 129 29.5 269t101 289.5t174.5 252.5q184 184 432 184q116 0 205.5 -41.5t143.5 -115t81 -170t27 -211.5q0 -129 -29.5 -269t-101 -289.5t-174.5 -252.5q-185 -185 -432 -185zM610 236q108 0 191 83
q104 104 168 302h-541q-8 -63 -8 -123q0 -262 190 -262zM651 1165q-105 -105 -168 -297h541q8 86 8 119q0 262 -190 262q-107 0 -191 -84z" />
    <glyph glyph-name="uni03B9" unicode="&#x3b9;" horiz-adv-x="673" 
d="M74 225q0 82 35 211l176 662h311l-193 -719q-12 -54 -12 -74q0 -32 23 -46.5t73 -14.5q24 0 60 4l-66 -240q-75 -20 -149 -20q-129 0 -193.5 62.5t-64.5 174.5z" />
    <glyph glyph-name="uni03BA" unicode="&#x3ba;" horiz-adv-x="1236" 
d="M1051 0h-332l-160 436l-178 -151l-76 -285h-311l293 1098h311l-111 -416l463 416h416l-555 -463z" />
    <glyph glyph-name="uni03BB" unicode="&#x3bb;" horiz-adv-x="1241" 
d="M231 0h-335l735 1100l-2 28q-6 53 -35 82q-35 35 -113 35q-58 0 -127 -16l52 256q92 24 176 24q147 0 233 -86q90 -90 119 -319l133 -1104h-317l-68 729z" />
    <glyph glyph-name="uni03BC" unicode="&#x3bc;" horiz-adv-x="1372" 
d="M543 -12q-84 0 -148.5 41.5t-95.5 128.5h-4q4 -148 -35 -295l-51 -191h-305l381 1426h311l-156 -582q-18 -70 -18 -119q0 -69 42 -107t118 -38q89 0 144.5 49.5t84.5 157.5l172 639h311l-192 -719q-12 -50 -12 -74q0 -32 23 -46.5t73 -14.5q23 0 59 4l-65 -240
q-75 -20 -150 -20q-89 0 -147 37.5t-82 103.5q-103 -141 -258 -141z" />
    <glyph glyph-name="uni03BD" unicode="&#x3bd;" horiz-adv-x="1212" 
d="M307 -8l-133 1106h320l49 -731l436 731h334l-723 -1106h-283z" />
    <glyph glyph-name="uni03BE" unicode="&#x3be;" horiz-adv-x="1140" 
d="M958 205l-124 -467h-291l73 270l-133 29q-209 44 -315.5 134.5t-106.5 242.5q0 145 95 245t290 140q-141 111 -141 270q0 188 148 314t383 126q291 0 495 -215l-192 -211q-65 69 -138 112.5t-170 43.5q-102 0 -160.5 -57t-58.5 -140q0 -180 279 -180h113l-68 -254h-268
q-144 0 -212.5 -44t-68.5 -120q0 -60 46 -97.5t145 -59.5z" />
    <glyph glyph-name="uni03BF" unicode="&#x3bf;" horiz-adv-x="1335" 
d="M614 -25q-241 0 -384.5 142.5t-143.5 365.5q0 124 50 240.5t140 206.5q89 89 203.5 138.5t241.5 49.5q241 0 384.5 -142.5t143.5 -365.5q0 -123 -50 -239.5t-140 -206.5q-89 -89 -203.5 -139t-241.5 -50zM629 242q112 0 198 86q55 53 86 129.5t31 144.5
q0 119 -64.5 184.5t-172.5 65.5q-113 0 -199 -86q-55 -53 -86 -129.5t-31 -144.5q0 -119 65 -184.5t173 -65.5z" />
    <glyph glyph-name="uni03C0" unicode="&#x3c0;" horiz-adv-x="1470" 
d="M825 225q0 82 35 211l103 385h-340l-220 -821h-311l221 821h-170l74 277h1305l-74 -277h-174l-119 -442q-12 -54 -12 -74q0 -32 23 -46.5t73 -14.5q23 0 59 4l-65 -240q-75 -20 -150 -20q-129 0 -193.5 62.5t-64.5 174.5z" />
    <glyph glyph-name="uni03C1" unicode="&#x3c1;" horiz-adv-x="1353" 
d="M672 -20q-122 0 -203 46t-139 134l-131 -488h-312l246 920q65 243 182 360q166 166 420 166q237 0 386 -139t149 -361q0 -133 -50 -252t-141 -210q-85 -85 -190 -130.5t-217 -45.5zM639 242q123 0 209 86q55 54 86 130.5t31 147.5q0 119 -63 184.5t-167 65.5
q-119 0 -205 -86q-56 -55 -88 -134.5t-32 -158.5q0 -108 65 -171.5t164 -63.5z" />
    <glyph glyph-name="uni03C2" unicode="&#x3c2;" horiz-adv-x="1159" 
d="M948 211l-125 -473h-291l74 274l-108 25q-201 45 -306.5 168t-105.5 295q0 129 47 241.5t127 192.5q184 184 445 184q168 0 285.5 -68.5t187.5 -179.5l-236 -170q-88 150 -244 150q-120 0 -204 -84q-101 -101 -101 -244q0 -99 64.5 -159.5t212.5 -92.5z" />
    <glyph glyph-name="uni03C3" unicode="&#x3c3;" horiz-adv-x="1415" 
d="M612 -25q-243 0 -384.5 137.5t-141.5 360.5q0 127 45.5 240t126.5 194q191 191 490 191h729l-72 -267l-293 7q113 -116 113 -299q0 -108 -42.5 -207t-119.5 -176q-84 -84 -201 -132.5t-250 -48.5zM627 242q121 0 207 86q46 46 72 112.5t26 139.5q0 123 -62.5 187
t-167.5 64q-118 0 -206 -88q-48 -48 -76.5 -118.5t-28.5 -143.5q0 -119 61.5 -179t174.5 -60z" />
    <glyph glyph-name="uni03C4" unicode="&#x3c4;" horiz-adv-x="1179" 
d="M1249 1098l-73 -277h-373l-107 -405q-16 -62 -16 -92q0 -47 31.5 -65.5t93.5 -18.5q48 0 127 12l-66 -246q-106 -16 -176 -16q-158 0 -245 65t-87 195q0 62 31 184l103 387h-353l74 277h1036z" />
    <glyph glyph-name="uni03C5" unicode="&#x3c5;" horiz-adv-x="1271" 
d="M541 -23q-209 0 -329 97t-120 266q0 83 29 190l151 568h312l-158 -588q-23 -94 -23 -133q0 -133 162 -133q103 0 164 61q56 56 86 172l166 621h311l-176 -660q-55 -202 -166 -313q-148 -148 -409 -148z" />
    <glyph glyph-name="uni03C6" unicode="&#x3c6;" horiz-adv-x="1730" 
d="M479 -328l90 340q-225 41 -355 176.5t-130 323.5q0 104 41.5 201t116.5 172q103 103 262 160t356 57l107 393h307l-111 -410q224 -43 354 -177.5t130 -321.5q0 -104 -41.5 -201t-116.5 -172q-103 -103 -262.5 -160t-354.5 -57l-86 -324h-307zM385 518q0 -97 67.5 -166.5
t188.5 -89.5l156 580q-212 -3 -326 -117q-86 -86 -86 -207zM1346 580q0 96 -68.5 166t-187.5 90l-154 -580q207 0 324 117q86 86 86 207z" />
    <glyph glyph-name="uni03C7" unicode="&#x3c7;" horiz-adv-x="1245" 
d="M514 1098l133 -443l332 443h377l-596 -717l264 -709h-336l-158 492l-389 -492h-377l656 758l-242 668h336z" />
    <glyph glyph-name="uni03C8" unicode="&#x3c8;" horiz-adv-x="1699" 
d="M1251 1495l-329 -1231q156 3 241 88q69 69 101 197l145 549h309l-162 -609q-53 -197 -163 -307q-180 -180 -541 -186l-86 -324h-307l88 328q-196 23 -315 131t-119 285q0 98 26 196l129 486h310l-138 -514q-18 -70 -18 -129q0 -86 48.5 -131t147.5 -56l330 1227h303z" />
    <glyph glyph-name="uni03C9" unicode="&#x3c9;" horiz-adv-x="1826" 
d="M844 885h303l-84 -322q-27 -105 -27 -157q0 -69 35 -111.5t113 -42.5q110 0 170.5 106t60.5 275q0 238 -115 465h314q104 -230 104 -465q0 -152 -40.5 -277t-112 -208t-168 -128t-207.5 -45q-152 0 -234.5 69t-107.5 185q-64 -126 -163.5 -190t-211.5 -64
q-183 0 -286 116t-103 296q0 179 84.5 362.5t257.5 348.5h358q-393 -349 -393 -670q0 -83 37 -129.5t102 -46.5q74 0 129 67t97 230z" />
    <glyph glyph-name="uni03CA" unicode="&#x3ca;" horiz-adv-x="673" 
d="M74 225q0 82 35 211l176 662h311l-193 -719q-12 -54 -12 -74q0 -32 23 -46.5t73 -14.5q24 0 60 4l-66 -240q-75 -20 -149 -20q-129 0 -193.5 62.5t-64.5 174.5zM109 1219l75 276h299l-75 -276h-299zM547 1219l76 276h299l-76 -276h-299z" />
    <glyph glyph-name="uni03CB" unicode="&#x3cb;" horiz-adv-x="1271" 
d="M541 -23q-209 0 -329 97t-120 266q0 83 29 190l151 568h312l-158 -588q-23 -94 -23 -133q0 -133 162 -133q103 0 164 61q56 56 86 172l166 621h311l-176 -660q-55 -202 -166 -313q-148 -148 -409 -148zM432 1219l76 276h299l-76 -276h-299zM870 1219l76 276h299l-76 -276
h-299z" />
    <glyph glyph-name="uni03CC" unicode="&#x3cc;" horiz-adv-x="1335" 
d="M614 -25q-241 0 -384.5 142.5t-143.5 365.5q0 124 50 240.5t140 206.5q89 89 203.5 138.5t241.5 49.5q241 0 384.5 -142.5t143.5 -365.5q0 -123 -50 -239.5t-140 -206.5q-89 -89 -203.5 -139t-241.5 -50zM629 242q112 0 198 86q55 53 86 129.5t31 144.5
q0 119 -64.5 184.5t-172.5 65.5q-113 0 -199 -86q-55 -53 -86 -129.5t-31 -144.5q0 -119 65 -184.5t173 -65.5zM702 1219l254 372l254 -114l-274 -258h-234z" />
    <glyph glyph-name="uni03CD" unicode="&#x3cd;" horiz-adv-x="1271" 
d="M541 -23q-209 0 -329 97t-120 266q0 83 29 190l151 568h312l-158 -588q-23 -94 -23 -133q0 -133 162 -133q103 0 164 61q56 56 86 172l166 621h311l-176 -660q-55 -202 -166 -313q-148 -148 -409 -148zM666 1219l254 372l254 -114l-275 -258h-233z" />
    <glyph glyph-name="uni03CE" unicode="&#x3ce;" horiz-adv-x="1826" 
d="M844 885h303l-84 -322q-27 -105 -27 -157q0 -69 35 -111.5t113 -42.5q110 0 170.5 106t60.5 275q0 238 -115 465h314q104 -230 104 -465q0 -152 -40.5 -277t-112 -208t-168 -128t-207.5 -45q-152 0 -234.5 69t-107.5 185q-64 -126 -163.5 -190t-211.5 -64
q-183 0 -286 116t-103 296q0 179 84.5 362.5t257.5 348.5h358q-393 -349 -393 -670q0 -83 37 -129.5t102 -46.5q74 0 129 67t97 230zM948 1219l254 372l254 -114l-274 -258h-234z" />
    <glyph glyph-name="uni0400" unicode="&#x400;" horiz-adv-x="1361" 
d="M25 0l385 1434h1071l-76 -281h-758l-78 -293h666l-76 -276h-665l-82 -303h770l-76 -281h-1081zM848 1546l-223 205l276 117l160 -322h-213z" />
    <glyph glyph-name="uni0401" unicode="&#x401;" horiz-adv-x="1361" 
d="M25 0l385 1434h1071l-76 -281h-758l-78 -293h666l-76 -276h-665l-82 -303h770l-76 -281h-1081zM600 1546l72 260h299l-72 -260h-299zM1047 1546l71 260h299l-71 -260h-299z" />
    <glyph glyph-name="uni0402" unicode="&#x402;" horiz-adv-x="1662" 
d="M1245 465q0 77 -62.5 114t-195.5 37q-87 0 -205 -16l-161 -600h-316l307 1143h-415l77 291h1178l-78 -291h-446l-72 -262q94 12 195 12q253 0 385.5 -104.5t132.5 -292.5q0 -205 -127 -332q-168 -168 -508 -168h-68l72 272h10q170 0 250 80q47 47 47 117z" />
    <glyph glyph-name="uni0403" unicode="&#x403;" horiz-adv-x="1280" 
d="M25 0l385 1434h1030l-78 -287h-715l-307 -1147h-315zM778 1546l336 322l260 -117l-334 -205h-262z" />
    <glyph glyph-name="uni0404" unicode="&#x404;" horiz-adv-x="1484" 
d="M139 600q0 175 66 331.5t186 276.5q117 117 273.5 183.5t332.5 66.5q197 0 338.5 -76t245.5 -223l-260 -182q-67 95 -151 144.5t-203 49.5q-197 0 -340 -143q-72 -72 -119 -172h610l-71 -266h-586q7 -156 105 -242t251 -86q172 0 334 139l201 -211q-243 -215 -543 -215
q-298 0 -484 169t-186 456z" />
    <glyph glyph-name="uni0405" unicode="&#x405;" horiz-adv-x="1302" 
d="M604 -20q-419 0 -624 264l237 200q87 -95 184 -141.5t217 -46.5q96 0 158 41.5t62 108.5q0 53 -50 91.5t-194 96.5q-62 25 -109 49t-95 59t-78.5 73.5t-50 91.5t-19.5 114q0 182 127 309q78 78 194 121t248 43q337 0 537 -213l-218 -217q-87 79 -165.5 116.5t-178.5 37.5
q-95 0 -151.5 -44t-56.5 -102q0 -55 49 -90t202 -98q64 -26 112 -51t94 -59.5t75 -73t46.5 -90.5t17.5 -113q0 -184 -130 -314q-80 -80 -195 -121.5t-245 -41.5z" />
    <glyph glyph-name="uni0406" unicode="&#x406;" horiz-adv-x="688" 
d="M39 0l385 1434h315l-385 -1434h-315z" />
    <glyph glyph-name="uni0407" unicode="&#x407;" horiz-adv-x="688" 
d="M39 0l385 1434h315l-385 -1434h-315zM238 1546l71 260h299l-71 -260h-299zM684 1546l72 260h299l-72 -260h-299z" />
    <glyph glyph-name="uni0408" unicode="&#x408;" horiz-adv-x="1177" 
d="M385 -20q-141 0 -265 61t-200 178l223 195q60 -75 121.5 -108.5t136.5 -33.5q113 0 193 80q36 36 62 95.5t63 197.5l211 789h323l-231 -865q-45 -173 -89.5 -267t-119.5 -169q-153 -153 -428 -153z" />
    <glyph glyph-name="uni0409" unicode="&#x409;" horiz-adv-x="2230" 
d="M887 0l311 1161h-31l-925 -1161h-367l1157 1434h555l-121 -451h150q281 0 420 -139q112 -112 112 -293q0 -213 -145 -358q-193 -193 -580 -193h-536zM1819 528q0 74 -45 119q-58 58 -181 58h-202l-113 -422h203q184 0 274 90q64 64 64 155z" />
    <glyph glyph-name="uni040A" unicode="&#x40a;" horiz-adv-x="2234" 
d="M891 0l153 575h-550l-154 -575h-315l385 1434h315l-154 -568h551l154 568h315l-121 -451h150q281 0 420 -139q112 -112 112 -293q0 -213 -145 -358q-193 -193 -580 -193h-536zM1823 528q0 74 -45 119q-58 58 -181 58h-202l-113 -422h203q184 0 274 90q64 64 64 155z" />
    <glyph glyph-name="uni040B" unicode="&#x40b;" horiz-adv-x="1693" 
d="M305 0l307 1143h-415l77 291h1178l-78 -291h-446l-72 -266q98 16 211 16q94 0 175.5 -21.5t150.5 -66.5t109 -126t40 -190q0 -83 -31 -204l-75 -285h-316l82 307q25 106 25 146q0 157 -236 157q-110 0 -211 -16l-159 -594h-316z" />
    <glyph glyph-name="uni040C" unicode="&#x40c;" horiz-adv-x="1499" 
d="M25 0l385 1434h315l-160 -586h88l629 586h420l-828 -734l498 -700h-356l-408 594h-112l-156 -594h-315zM860 1546l336 322l260 -117l-334 -205h-262z" />
    <glyph glyph-name="uni040D" unicode="&#x40d;" horiz-adv-x="1617" 
d="M1376 1434h307l-385 -1434h-315l242 905l-916 -905h-284l385 1434h315l-236 -877zM940 1546l-223 205l276 117l160 -322h-213z" />
    <glyph glyph-name="uni040E" unicode="&#x40e;" horiz-adv-x="1447" 
d="M1665 1434l-1161 -1434h-365l410 504l-303 930h334l198 -666l522 666h365zM940 1542q-166 0 -249.5 80t-59.5 225h198q13 -100 154 -100q73 0 120 25t79 75h227q-52 -145 -177.5 -225t-291.5 -80z" />
    <glyph glyph-name="uni040F" unicode="&#x40f;" horiz-adv-x="1538" 
d="M1604 1434l-385 -1434h-449l-78 -291h-295l80 291h-452l385 1434h315l-307 -1147h563l307 1147h316z" />
    <glyph glyph-name="uni0410" unicode="&#x410;" horiz-adv-x="1566" 
d="M-117 0l1002 1444h303l227 -1444h-323l-45 322h-607l-217 -322h-340zM629 600h381l-66 473z" />
    <glyph glyph-name="uni0411" unicode="&#x411;" horiz-adv-x="1460" 
d="M1339 487q0 -89 -31.5 -171.5t-90.5 -141.5q-99 -99 -244 -136.5t-332 -37.5h-616l385 1434h1060l-73 -279h-754l-76 -278h234q165 0 269.5 -30.5t170.5 -96.5q98 -98 98 -263zM1010 471q0 53 -31 84q-29 29 -80.5 39t-150.5 10h-254l-88 -325h296q186 0 261 75
q47 47 47 117z" />
    <glyph glyph-name="uni0412" unicode="&#x412;" horiz-adv-x="1468" 
d="M25 0l385 1434h557q241 0 363 -99t122 -254q0 -139 -82.5 -230.5t-224.5 -123.5q201 -93 201 -291q0 -197 -162.5 -316.5t-454.5 -119.5h-704zM406 276h370q118 0 187 49t69 132q0 64 -50.5 99.5t-145.5 35.5h-347zM561 854h318q124 0 191 43.5t67 130.5q0 59 -49.5 94
t-149.5 35h-297z" />
    <glyph glyph-name="uni0413" unicode="&#x413;" horiz-adv-x="1280" 
d="M25 0l385 1434h1030l-78 -287h-715l-307 -1147h-315z" />
    <glyph glyph-name="uni0414" unicode="&#x414;" horiz-adv-x="1724" 
d="M-8 287h149l795 1157h332l172 -1157h153l-155 -578h-295l78 291h-1012l-78 -291h-293zM1014 1079l-535 -805h637z" />
    <glyph glyph-name="uni0415" unicode="&#x415;" horiz-adv-x="1361" 
d="M25 0l385 1434h1071l-76 -281h-758l-78 -293h666l-76 -276h-665l-82 -303h770l-76 -281h-1081z" />
    <glyph glyph-name="uni0416" unicode="&#x416;" horiz-adv-x="2228" 
d="M1522 1434l-164 -586h69l603 586h405l-795 -746l443 -688h-350l-359 594h-84l-153 -594h-316l164 594h-76l-633 -594h-405l838 760l-400 674h350l326 -586h68l153 586h316z" />
    <glyph glyph-name="uni0417" unicode="&#x417;" horiz-adv-x="1359" 
d="M395 1038l-143 240q121 82 272.5 131t304.5 49q243 0 387 -106t144 -273q0 -144 -89 -236.5t-235 -137.5q88 -41 145.5 -115t57.5 -176q0 -134 -85 -236t-217 -152.5t-286 -50.5q-221 0 -376.5 70.5t-272.5 198.5l205 205q98 -98 206.5 -145.5t241.5 -47.5
q116 0 190.5 51t74.5 125q0 160 -244 160h-264l71 262h240q147 0 224 47t77 129q0 66 -55 107t-154 41q-203 0 -420 -140z" />
    <glyph glyph-name="uni0418" unicode="&#x418;" horiz-adv-x="1617" 
d="M1376 1434h307l-385 -1434h-315l242 905l-916 -905h-284l385 1434h315l-236 -877z" />
    <glyph glyph-name="uni0419" unicode="&#x419;" horiz-adv-x="1617" 
d="M1376 1434h307l-385 -1434h-315l242 905l-916 -905h-284l385 1434h315l-236 -877zM1063 1542q-166 0 -249.5 80t-59.5 225h198q13 -100 154 -100q73 0 120 25t79 75h227q-52 -145 -177.5 -225t-291.5 -80z" />
    <glyph glyph-name="uni041A" unicode="&#x41a;" horiz-adv-x="1499" 
d="M25 0l385 1434h315l-160 -586h88l629 586h420l-828 -734l498 -700h-356l-408 594h-112l-156 -594h-315z" />
    <glyph glyph-name="uni041B" unicode="&#x41b;" horiz-adv-x="1523" 
d="M1151 1444l207 -1444h-338l-121 991l-653 -991h-355l981 1444h279z" />
    <glyph glyph-name="uni041C" unicode="&#x41c;" horiz-adv-x="1765" 
d="M25 0l385 1434h321l207 -607l535 607h358l-385 -1434h-313l249 936l-561 -612h-8l-229 606l-250 -930h-309z" />
    <glyph glyph-name="uni041D" unicode="&#x41d;" horiz-adv-x="1548" 
d="M25 0l385 1434h315l-152 -568h574l151 568h316l-385 -1434h-316l156 575h-573l-156 -575h-315z" />
    <glyph glyph-name="uni041E" unicode="&#x41e;" horiz-adv-x="1703" 
d="M999 1458q145 0 268.5 -49t208 -133.5t132 -201.5t47.5 -251q0 -164 -66 -321t-186 -277q-118 -118 -273 -184t-337 -66q-145 0 -268.5 49t-208 133.5t-132 201.5t-47.5 251q0 164 66 321t186 277q118 118 273 184t337 66zM829 266q190 0 332 142q77 77 121.5 184
t44.5 211q0 164 -95.5 264t-268.5 100q-191 0 -332 -141q-77 -77 -121.5 -184t-44.5 -211q0 -164 95.5 -264.5t268.5 -100.5z" />
    <glyph glyph-name="uni041F" unicode="&#x41f;" horiz-adv-x="1538" 
d="M25 0l385 1434h1194l-385 -1434h-316l307 1147h-563l-307 -1147h-315z" />
    <glyph glyph-name="uni0420" unicode="&#x420;" horiz-adv-x="1390" 
d="M25 0l385 1434h454q156 0 265 -34.5t186 -111.5q110 -110 110 -295q0 -219 -145 -364q-95 -95 -237.5 -145t-313.5 -50h-272l-117 -434h-315zM1051 1087q-62 62 -199 62h-205l-117 -438h215q191 0 285 94q66 66 66 162q0 75 -45 120z" />
    <glyph glyph-name="uni0421" unicode="&#x421;" horiz-adv-x="1486" 
d="M813 -25q-297 0 -486.5 171t-189.5 454q0 168 67 324t187 276q121 121 281 189.5t338 68.5q386 0 573 -305l-260 -182q-45 64 -90.5 104.5t-112 66t-149.5 25.5q-189 0 -336 -147q-79 -79 -124.5 -185t-45.5 -223q0 -154 97.5 -250t252.5 -96q97 0 172 34.5t164 107.5
l205 -213q-113 -105 -243.5 -162.5t-299.5 -57.5z" />
    <glyph glyph-name="uni0422" unicode="&#x422;" horiz-adv-x="1269" 
d="M326 0l307 1143h-436l77 291h1188l-78 -291h-436l-307 -1143h-315z" />
    <glyph glyph-name="uni0423" unicode="&#x423;" horiz-adv-x="1447" 
d="M1665 1434l-1161 -1434h-365l410 504l-303 930h334l198 -666l522 666h365z" />
    <glyph glyph-name="uni0424" unicode="&#x424;" horiz-adv-x="1988" 
d="M1079 1450h316l-39 -143q263 -27 421 -167t158 -356q0 -237 -166 -403q-118 -118 -306.5 -184t-424.5 -72l-37 -141h-315l39 145q-264 27 -423 167.5t-159 356.5q0 238 166 404q118 118 307 184t426 70zM469 672q0 -119 87 -192t247 -83l172 645q-278 -9 -414 -145
q-92 -92 -92 -225zM1610 766q0 118 -86.5 190t-245.5 84l-174 -645q274 6 414 146q92 92 92 225z" />
    <glyph glyph-name="uni0425" unicode="&#x425;" horiz-adv-x="1433" 
d="M-104 0l692 743l-307 691h354l180 -461l402 461h403l-674 -725l318 -709h-355l-192 481l-418 -481h-403z" />
    <glyph glyph-name="uni0426" unicode="&#x426;" horiz-adv-x="1603" 
d="M1604 1434l-310 -1147h193l-156 -578h-295l80 291h-1091l385 1434h315l-307 -1147h563l307 1147h316z" />
    <glyph glyph-name="uni0427" unicode="&#x427;" horiz-adv-x="1445" 
d="M811 0l119 451q-115 -21 -221 -21q-78 0 -146.5 12.5t-132 42t-109 75t-73 117t-27.5 161.5q0 89 31 206l104 390h316l-111 -414q-24 -87 -24 -137q0 -166 231 -166q131 0 242 24l186 693h315l-385 -1434h-315z" />
    <glyph glyph-name="uni0428" unicode="&#x428;" horiz-adv-x="2297" 
d="M2363 1434l-385 -1434h-1953l385 1434h315l-307 -1147h504l307 1147h315l-307 -1147h504l307 1147h315z" />
    <glyph glyph-name="uni0429" unicode="&#x429;" horiz-adv-x="2363" 
d="M2363 1434l-309 -1147h193l-156 -578h-295l80 291h-1851l385 1434h315l-307 -1147h504l307 1147h315l-307 -1147h504l307 1147h315z" />
    <glyph glyph-name="uni042A" unicode="&#x42a;" horiz-adv-x="1687" 
d="M197 1153l75 281h750l-121 -451h172q281 0 420 -139q113 -113 113 -293q0 -212 -146 -358q-193 -193 -579 -193h-559l309 1153h-434zM1276 528q0 74 -45 119q-58 58 -180 58h-226l-112 -422h225q184 0 274 90q64 64 64 155z" />
    <glyph glyph-name="uni042B" unicode="&#x42b;" horiz-adv-x="2013" 
d="M25 0l385 1434h315l-121 -451h172q281 0 420 -139q113 -113 113 -293q0 -212 -146 -358q-193 -193 -579 -193h-559zM1378 0l385 1434h316l-385 -1434h-316zM979 528q0 74 -45 119q-58 58 -180 58h-226l-112 -422h225q184 0 274 90q64 64 64 155z" />
    <glyph glyph-name="uni042C" unicode="&#x42c;" horiz-adv-x="1390" 
d="M25 0l385 1434h315l-121 -451h172q281 0 420 -139q113 -113 113 -293q0 -212 -146 -358q-193 -193 -579 -193h-559zM979 528q0 74 -45 119q-58 58 -180 58h-226l-112 -422h225q184 0 274 90q64 64 64 155z" />
    <glyph glyph-name="uni042D" unicode="&#x42d;" horiz-adv-x="1482" 
d="M1434 834q0 -185 -64 -346t-182 -279q-111 -111 -260 -172.5t-324 -61.5q-192 0 -348 77.5t-256 221.5l238 189q154 -201 378 -201q208 0 345 137q75 75 116 191h-622l71 266h584q-9 147 -98 231t-240 84q-198 0 -364 -139l-179 225q245 201 562 201q291 0 467 -172.5
t176 -451.5z" />
    <glyph glyph-name="uni042E" unicode="&#x42e;" horiz-adv-x="2265" 
d="M25 0l385 1434h315l-152 -568h215q67 204 218 355q112 112 258.5 174.5t316.5 62.5q187 0 332 -83.5t223 -228t78 -323.5q0 -167 -65.5 -326t-186.5 -280q-242 -242 -580 -242q-136 0 -252 45.5t-197 125.5t-129 190.5t-54 238.5h-256l-154 -575h-315zM1419 266
q170 0 301 131q75 75 120.5 182.5t45.5 223.5q0 164 -90 264t-252 100q-170 0 -301 -131q-75 -75 -120.5 -182t-45.5 -223q0 -164 90 -264.5t252 -100.5z" />
    <glyph glyph-name="uni042F" unicode="&#x42f;" horiz-adv-x="1492" 
d="M1561 1434l-385 -1434h-316l123 459h-244l-405 -459h-391l483 537q-94 52 -153.5 143.5t-59.5 218.5q0 211 143 354q181 181 555 181h650zM1169 1149h-311q-180 0 -254 -74q-61 -61 -61 -157q0 -89 65 -135t189 -46h262z" />
    <glyph glyph-name="uni0430" unicode="&#x430;" horiz-adv-x="1204" 
d="M334 -20q-142 0 -231 82.5t-89 211.5q0 160 105 265q131 131 368 131q155 0 310 -49l4 14q12 50 12 82q0 129 -207 129q-148 0 -293 -60l-49 246q188 78 408 78q219 0 331.5 -87.5t112.5 -250.5q0 -72 -24 -166l-162 -606h-301l33 127q-138 -147 -328 -147zM467 193
q94 0 171.5 64.5t104.5 156.5l9 28q-103 39 -205 39q-117 0 -178 -61q-45 -45 -45 -111q0 -52 39 -84t104 -32z" />
    <glyph glyph-name="uni0431" unicode="&#x431;" horiz-adv-x="1372" 
d="M633 -23q-237 0 -369 132q-141 141 -141 393q0 198 69.5 394t210.5 337q109 109 240 166t315 76l381 38l13 -284l-383 -39q-280 -28 -408 -156q-49 -49 -92 -133q155 111 362 111q213 0 327 -116.5t114 -305.5q0 -120 -47 -230t-131 -194q-88 -88 -207.5 -138.5
t-253.5 -50.5zM651 236q129 0 221 92q93 93 93 227q0 104 -61.5 164.5t-170.5 60.5q-135 0 -227 -92q-90 -90 -90 -219q0 -103 62.5 -168t172.5 -65z" />
    <glyph glyph-name="uni0432" unicode="&#x432;" horiz-adv-x="1212" 
d="M-8 0l295 1098h463q204 0 297.5 -75.5t93.5 -199.5q0 -98 -64.5 -173t-169.5 -103q158 -67 158 -213q0 -151 -128.5 -242.5t-369.5 -91.5h-575zM471 657h182q193 0 193 131q0 43 -35.5 67t-103.5 24h-177zM354 219h209q97 0 146 37t49 98q0 46 -34 70.5t-120 24.5h-188z
" />
    <glyph glyph-name="uni0433" unicode="&#x433;" horiz-adv-x="1044" 
d="M-8 0l295 1098h841l-75 -281h-531l-219 -817h-311z" />
    <glyph glyph-name="uni0434" unicode="&#x434;" horiz-adv-x="1392" 
d="M-27 281h119l592 825h328l141 -825h123l-146 -543h-280l70 264h-742l-69 -264h-279zM768 776l-346 -508h422z" />
    <glyph glyph-name="uni0435" unicode="&#x435;" horiz-adv-x="1243" 
d="M1128 440h-753q8 -101 70.5 -158t181.5 -57q117 0 243 88l144 -192q-174 -146 -422 -146q-236 0 -372 130.5t-136 357.5q0 127 52.5 251t146.5 218q186 186 452 186q209 0 329 -120t120 -308q0 -116 -56 -250zM492 776q-59 -59 -89 -141h478q10 33 10 72
q0 72 -44.5 116.5t-135.5 44.5q-127 0 -219 -92z" />
    <glyph glyph-name="uni0436" unicode="&#x436;" horiz-adv-x="1822" 
d="M1214 1098l-114 -418h69l406 418h379l-576 -566l303 -532h-331l-228 428h-90l-110 -428h-312l119 428h-80l-424 -428h-379l607 582l-295 516h331l226 -418h82l106 418h311z" />
    <glyph glyph-name="uni0437" unicode="&#x437;" horiz-adv-x="1163" 
d="M524 -25q-321 0 -538 185l161 196q164 -131 373 -131q85 0 136 33t51 82q0 98 -162 98h-234l60 224h217q192 0 192 110q0 46 -39 71t-112 25q-172 0 -338 -90l-117 217q107 60 219.5 91.5t257.5 31.5q214 0 330.5 -86.5t116.5 -220.5q0 -106 -70.5 -177.5t-177.5 -101.5
q80 -38 118 -91.5t38 -139.5q0 -132 -131 -229t-351 -97z" />
    <glyph glyph-name="uni0438" unicode="&#x438;" horiz-adv-x="1312" 
d="M1022 1098h299l-295 -1098h-309l164 616l-607 -616h-282l295 1098h309l-160 -594z" />
    <glyph glyph-name="uni0439" unicode="&#x439;" horiz-adv-x="1312" 
d="M1022 1098h299l-295 -1098h-309l164 616l-607 -616h-282l295 1098h309l-160 -594zM850 1214q-89 0 -156.5 26.5t-106.5 72.5t-58 103t-17 124h213q3 -53 39.5 -88t99.5 -35q76 0 123 31.5t86 91.5h215q-48 -145 -162.5 -235.5t-275.5 -90.5z" />
    <glyph glyph-name="uni043A" unicode="&#x43a;" horiz-adv-x="1236" 
d="M-8 0l295 1098h311l-117 -418h90l398 418h403l-590 -580l301 -518h-335l-236 428h-98l-111 -428h-311z" />
    <glyph glyph-name="uni043B" unicode="&#x43b;" horiz-adv-x="1282" 
d="M944 1106l164 -1106h-324l-75 723l-469 -723h-340l749 1106h295z" />
    <glyph glyph-name="uni043C" unicode="&#x43c;" horiz-adv-x="1490" 
d="M643 188l-170 457l-174 -645h-307l295 1098h299l168 -443l395 443h350l-295 -1098h-307l176 651l-424 -463h-6z" />
    <glyph glyph-name="uni043D" unicode="&#x43d;" horiz-adv-x="1298" 
d="M1307 1098l-295 -1098h-312l111 410h-397l-111 -410h-311l295 1098h311l-109 -404h398l108 404h312z" />
    <glyph glyph-name="uni043E" unicode="&#x43e;" horiz-adv-x="1335" 
d="M614 -25q-241 0 -384.5 142.5t-143.5 365.5q0 124 50 240.5t140 206.5q89 89 203.5 138.5t241.5 49.5q241 0 384.5 -142.5t143.5 -365.5q0 -123 -50 -239.5t-140 -206.5q-89 -89 -203.5 -139t-241.5 -50zM629 242q112 0 198 86q55 53 86 129.5t31 144.5
q0 119 -64.5 184.5t-172.5 65.5q-113 0 -199 -86q-55 -53 -86 -129.5t-31 -144.5q0 -119 65 -184.5t173 -65.5z" />
    <glyph glyph-name="uni043F" unicode="&#x43f;" horiz-adv-x="1302" 
d="M1311 1098l-295 -1098h-311l219 817h-402l-219 -817h-311l295 1098h1024z" />
    <glyph glyph-name="uni0440" unicode="&#x440;" horiz-adv-x="1380" 
d="M690 -20q-123 0 -204.5 46t-139.5 134l-131 -488h-311l383 1426h311l-33 -119q75 70 148 104.5t161 34.5q185 0 303.5 -126.5t118.5 -344.5q0 -147 -52 -272t-144 -217q-85 -85 -191.5 -131.5t-218.5 -46.5zM649 242q117 0 209 92q117 117 117 293q0 106 -62.5 167.5
t-167.5 61.5q-119 0 -213 -94q-118 -118 -118 -287q0 -104 66 -168.5t169 -64.5z" />
    <glyph glyph-name="uni0441" unicode="&#x441;" horiz-adv-x="1146" 
d="M598 -25q-226 0 -369 136.5t-143 359.5q0 131 49.5 248.5t138.5 206.5q91 91 210 141.5t249 50.5q311 0 451 -241l-238 -168q-31 47 -59 75.5t-73.5 48t-104.5 19.5q-107 0 -197 -90q-55 -55 -87 -131.5t-32 -159.5q0 -104 61 -167.5t154 -63.5q69 0 126 26t122 82
l160 -203q-95 -85 -191 -127.5t-227 -42.5z" />
    <glyph glyph-name="uni0442" unicode="&#x442;" horiz-adv-x="1171" 
d="M223 1098h1024l-73 -277h-357l-221 -821h-311l221 821h-356z" />
    <glyph glyph-name="uni0443" unicode="&#x443;" horiz-adv-x="1212" 
d="M326 -8l-136 1106h318l51 -746l412 746h336l-680 -1125q-107 -167 -210 -237t-243 -70q-146 0 -256 76l166 225q57 -43 121 -43q37 0 63.5 14t57.5 54z" />
    <glyph glyph-name="uni0444" unicode="&#x444;" horiz-adv-x="1730" 
d="M479 -328l90 340q-225 41 -355 176.5t-130 323.5q0 104 41.5 201t116.5 172q103 103 262 160t356 57l107 393h307l-111 -410q224 -43 354 -177.5t130 -321.5q0 -104 -41.5 -201t-116.5 -172q-103 -103 -262.5 -160t-354.5 -57l-86 -324h-307zM385 518q0 -97 67.5 -166.5
t188.5 -89.5l156 580q-212 -3 -326 -117q-86 -86 -86 -207zM1346 580q0 96 -68.5 166t-187.5 90l-154 -580q207 0 324 117q86 86 86 207z" />
    <glyph glyph-name="uni0445" unicode="&#x445;" horiz-adv-x="1183" 
d="M526 1098l123 -307l258 307h371l-514 -555l242 -543h-332l-127 326l-279 -326h-370l536 573l-239 525h331z" />
    <glyph glyph-name="uni0446" unicode="&#x446;" horiz-adv-x="1372" 
d="M-8 0l295 1098h311l-219 -817h401l219 817h312l-219 -817h143l-145 -543h-281l72 262h-889z" />
    <glyph glyph-name="uni0447" unicode="&#x447;" horiz-adv-x="1208" 
d="M1217 1098l-295 -1098h-312l82 311q-63 -8 -149 -8q-196 0 -305 79t-109 239q0 76 35 204l74 273h309l-88 -330q-13 -54 -13 -82q0 -56 45 -82t140 -26q86 0 135 10l139 510h312z" />
    <glyph glyph-name="uni0448" unicode="&#x448;" horiz-adv-x="1933" 
d="M-8 0l295 1098h311l-219 -817h360l219 817h312l-219 -817h360l219 817h312l-295 -1098h-1655z" />
    <glyph glyph-name="uni0449" unicode="&#x449;" horiz-adv-x="2002" 
d="M-8 0l295 1098h311l-219 -817h360l219 817h312l-219 -817h360l219 817h312l-220 -817h148l-146 -543h-280l72 262h-1524z" />
    <glyph glyph-name="uni044A" unicode="&#x44a;" horiz-adv-x="1382" 
d="M1286 442q0 -200 -155 -321t-437 -121h-469l221 827h-303l72 271h616l-81 -314h77q231 0 345 -91t114 -251zM983 420q0 119 -166 119h-139l-76 -289h137q120 0 182 47t62 123z" />
    <glyph glyph-name="uni044B" unicode="&#x44b;" horiz-adv-x="1703" 
d="M1053 442q0 -200 -155 -321t-437 -121h-469l295 1098h311l-82 -314h78q231 0 345 -91t114 -251zM1106 0l295 1098h311l-295 -1098h-311zM750 420q0 119 -166 119h-140l-75 -289h137q120 0 182 47t62 123z" />
    <glyph glyph-name="uni044C" unicode="&#x44c;" horiz-adv-x="1148" 
d="M1053 442q0 -200 -155 -321t-437 -121h-469l295 1098h311l-82 -314h78q231 0 345 -91t114 -251zM750 420q0 119 -166 119h-140l-75 -289h137q120 0 182 47t62 123z" />
    <glyph glyph-name="uni044D" unicode="&#x44d;" horiz-adv-x="1165" 
d="M360 670l418 -4q-12 94 -73.5 146t-159.5 52q-139 0 -264 -92l-136 209q198 137 420 137q234 0 374 -139t140 -363q0 -132 -49 -252t-139 -210q-84 -84 -198 -131.5t-247 -47.5q-152 0 -262.5 53t-201.5 160l194 181q64 -71 126 -104.5t147 -33.5q138 0 231 93
q49 49 70 106l-455 -4z" />
    <glyph glyph-name="uni044E" unicode="&#x44e;" horiz-adv-x="1828" 
d="M-8 0l295 1098h311l-106 -402h151q50 136 154 240q86 86 196.5 134t233.5 48q235 0 375.5 -142t140.5 -366q0 -126 -51 -243.5t-142 -208.5q-86 -86 -196.5 -134.5t-233.5 -48.5q-215 0 -351.5 120t-160.5 315h-194l-111 -410h-311zM1130 242q107 0 195 88
q52 52 82.5 125t30.5 147q0 118 -59.5 184t-161.5 66q-107 0 -195 -88q-52 -52 -82.5 -125t-30.5 -147q0 -118 59.5 -184t161.5 -66z" />
    <glyph glyph-name="uni044F" unicode="&#x44f;" horiz-adv-x="1245" 
d="M-66 0l385 418q-157 94 -157 274q0 184 142 295t384 111h565l-295 -1098h-307l94 352h-133l-311 -352h-367zM881 860h-207q-96 0 -152.5 -42.5t-56.5 -115.5q0 -60 40.5 -92t137.5 -32h162z" />
    <glyph glyph-name="uni0450" unicode="&#x450;" horiz-adv-x="1243" 
d="M1128 440h-753q8 -101 70.5 -158t181.5 -57q117 0 243 88l144 -192q-174 -146 -422 -146q-236 0 -372 130.5t-136 357.5q0 127 52.5 251t146.5 218q186 186 452 186q209 0 329 -120t120 -308q0 -116 -56 -250zM492 776q-59 -59 -89 -141h478q10 33 10 72
q0 72 -44.5 116.5t-135.5 44.5q-127 0 -219 -92zM690 1219l-194 245l274 117l133 -362h-213z" />
    <glyph glyph-name="uni0451" unicode="&#x451;" horiz-adv-x="1243" 
d="M1128 440h-753q8 -101 70.5 -158t181.5 -57q117 0 243 88l144 -192q-174 -146 -422 -146q-236 0 -372 130.5t-136 357.5q0 127 52.5 251t146.5 218q186 186 452 186q209 0 329 -120t120 -308q0 -116 -56 -250zM492 776q-59 -59 -89 -141h478q10 33 10 72
q0 72 -44.5 116.5t-135.5 44.5q-127 0 -219 -92zM444 1219l76 276h299l-76 -276h-299zM883 1219l75 276h299l-75 -276h-299z" />
    <glyph glyph-name="uni0452" unicode="&#x452;" horiz-adv-x="1224" 
d="M930 1126h-318l-57 -213q67 11 154 11q196 0 304.5 -79t108.5 -239q0 -77 -35 -205l-100 -370q-55 -201 -158 -283t-292 -82q-94 0 -183 19l66 243q52 -12 104 -12q62 0 99.5 29.5t58.5 107.5l109 406q12 49 12 82q0 56 -45 82t-140 26q-76 0 -137 -12l-172 -637h-311
l301 1126h-199l66 242h199l34 127h312l-35 -127h319z" />
    <glyph glyph-name="uni0453" unicode="&#x453;" horiz-adv-x="1044" 
d="M-8 0l295 1098h841l-75 -281h-531l-219 -817h-311zM571 1219l330 362l262 -117l-329 -245h-263z" />
    <glyph glyph-name="uni0454" unicode="&#x454;" horiz-adv-x="1167" 
d="M872 670l-65 -244l-420 4q10 -98 71 -149.5t158 -51.5q139 0 273 99l137 -209q-193 -144 -420 -144q-233 0 -376.5 136.5t-143.5 359.5q0 133 49.5 254.5t140.5 212.5q84 84 199.5 132t249.5 48q157 0 265 -54.5t194 -152.5l-207 -186q-57 67 -117 102t-149 35
q-136 0 -226 -90q-44 -44 -71 -106z" />
    <glyph glyph-name="uni0455" unicode="&#x455;" 
d="M444 -25q-132 0 -266.5 51t-226.5 148l180 186q147 -147 336 -147q62 0 96.5 25t34.5 71q0 29 -31.5 52t-95.5 51q-63 27 -100.5 45.5t-84.5 48.5t-72.5 60t-43.5 73t-18 94q0 168 120 276.5t320 108.5q125 0 241.5 -45.5t190.5 -111.5l-168 -197q-148 117 -287 117
q-57 0 -88.5 -25t-31.5 -68q0 -30 34 -55t111 -59q53 -23 87.5 -40.5t79 -47t70.5 -59t45 -72.5t19 -93q0 -177 -125.5 -282t-325.5 -105z" />
    <glyph glyph-name="uni0456" unicode="&#x456;" horiz-adv-x="618" 
d="M6 0l295 1098h311l-295 -1098h-311zM326 1219l75 276h328l-76 -276h-327z" />
    <glyph glyph-name="uni0457" unicode="&#x457;" horiz-adv-x="618" 
d="M6 0l295 1098h311l-295 -1098h-311zM121 1219l76 276h299l-76 -276h-299zM559 1219l76 276h299l-76 -276h-299z" />
    <glyph glyph-name="uni0458" unicode="&#x458;" horiz-adv-x="618" 
d="M-94 -334q-90 0 -170 17l65 243q42 -10 76 -10q51 0 90 39.5t58 110.5l276 1032h311l-286 -1071q-53 -194 -160 -277.5t-260 -83.5zM326 1219l73 276h328l-74 -276h-327z" />
    <glyph glyph-name="uni0459" unicode="&#x459;" horiz-adv-x="1742" 
d="M-133 0l825 1098h527l-84 -314h53q231 0 345 -91t114 -251q0 -200 -155 -321t-437 -121h-443l230 856h-6l-639 -856h-330zM1343 420q0 119 -165 119h-113l-76 -289h111q119 0 181 47t62 123z" />
    <glyph glyph-name="uni045A" unicode="&#x45a;" horiz-adv-x="1812" 
d="M-8 0l295 1098h311l-106 -402h376l109 402h311l-84 -314h53q231 0 345 -91t114 -251q0 -200 -155 -321t-437 -121h-442l109 410h-377l-111 -410h-311zM1413 420q0 119 -166 119h-112l-76 -289h110q120 0 182 47t62 123z" />
    <glyph glyph-name="uni045B" unicode="&#x45b;" horiz-adv-x="1224" 
d="M930 1126h-318l-57 -213q67 11 154 11q196 0 304.5 -79t108.5 -239q0 -77 -35 -205l-108 -401h-311l123 459q12 49 12 82q0 56 -45 82t-140 26q-76 0 -137 -12l-172 -637h-311l301 1126h-199l66 242h199l34 127h312l-35 -127h319z" />
    <glyph glyph-name="uni045C" unicode="&#x45c;" horiz-adv-x="1236" 
d="M-8 0l295 1098h311l-117 -418h90l398 418h403l-590 -580l301 -518h-335l-236 428h-98l-111 -428h-311zM639 1219l330 362l262 -117l-330 -245h-262z" />
    <glyph glyph-name="uni045D" unicode="&#x45d;" horiz-adv-x="1312" 
d="M1022 1098h299l-295 -1098h-309l164 616l-607 -616h-282l295 1098h309l-160 -594zM702 1219l-194 245l274 117l133 -362h-213z" />
    <glyph glyph-name="uni045E" unicode="&#x45e;" horiz-adv-x="1212" 
d="M326 -8l-136 1106h318l51 -746l412 746h336l-680 -1125q-107 -167 -210 -237t-243 -70q-146 0 -256 76l166 225q57 -43 121 -43q37 0 63.5 14t57.5 54zM793 1214q-89 0 -156.5 26.5t-106.5 72.5t-58 103t-17 124h213q3 -53 39.5 -88t99.5 -35q76 0 123 31.5t86 91.5h215
q-48 -145 -162.5 -235.5t-275.5 -90.5z" />
    <glyph glyph-name="uni045F" unicode="&#x45f;" horiz-adv-x="1302" 
d="M-8 0l295 1098h311l-219 -817h401l219 817h312l-295 -1098h-375l-70 -262h-280l71 262h-370z" />
    <glyph glyph-name="uni0462" unicode="&#x462;" horiz-adv-x="1687" 
d="M1376 1042h-465l-53 -202h270q248 0 365 -117q94 -94 94 -252q0 -182 -125 -307q-164 -164 -495 -164h-645l276 1038h-432l70 256h432l41 156h311l-41 -156h465zM1257 446q0 52 -28 80q-41 41 -135 41h-310l-77 -291h317q128 0 190 62q43 46 43 108z" />
    <glyph glyph-name="uni0463" unicode="&#x463;" horiz-adv-x="1392" 
d="M1229 1098l-68 -258h-401l-37 -144h158q207 0 307 -80.5t100 -222.5q0 -178 -137 -285.5t-387 -107.5h-539l224 836h-306l70 262h305l107 397h311l-107 -397h400zM983 371q0 92 -129 92h-199l-59 -223h199q93 0 140.5 36t47.5 95z" />
    <glyph glyph-name="uni0472" unicode="&#x472;" horiz-adv-x="1691" 
d="M993 1458q192 0 340.5 -83.5t228.5 -228t80 -323.5q0 -164 -65.5 -321t-183.5 -277q-116 -118 -271 -184t-336 -66q-192 0 -340.5 83.5t-228.5 228t-80 323.5q0 164 65.5 321t184.5 277q116 118 270.5 184t335.5 66zM1163 395q77 77 123 191h-835q12 -153 109.5 -244.5
t262.5 -91.5q195 0 340 145zM956 1184q-194 0 -340 -146q-73 -73 -120 -180h831q-15 149 -112 237.5t-259 88.5z" />
    <glyph glyph-name="uni0473" unicode="&#x473;" horiz-adv-x="1323" 
d="M608 -25q-238 0 -380 142.5t-142 365.5q0 125 48.5 241.5t137.5 205.5t203.5 138.5t239.5 49.5q238 0 380 -142.5t142 -365.5q0 -125 -48.5 -241t-137.5 -205q-90 -90 -204 -139.5t-239 -49.5zM623 221q127 0 223 96q55 55 80 115h-557q17 -102 84 -156.5t170 -54.5z
M479 778q-57 -57 -82 -114h555q-17 100 -84 154t-168 54q-127 0 -221 -94z" />
    <glyph glyph-name="uni0474" unicode="&#x474;" horiz-adv-x="1568" 
d="M442 -10l-186 1444h338l102 -1000l394 635q93 151 170 227.5t171.5 109t241.5 32.5h96l-75 -285h-25q-52 0 -89 -7t-65 -19.5t-57.5 -44t-54 -64t-66.5 -96.5l-616 -932h-279z" />
    <glyph glyph-name="uni0475" unicode="&#x475;" horiz-adv-x="1257" 
d="M580 -8h-283l-123 1106h320l43 -731l233 387q66 110 117.5 174.5t112.5 105t127 54.5t163 14h72l-68 -256h-22q-77 0 -123 -32.5t-119 -141.5z" />
    <glyph glyph-name="uni0490" unicode="&#x490;" horiz-adv-x="1280" 
d="M1362 1147h-715l-307 -1147h-315l385 1434h735l74 276h294z" />
    <glyph glyph-name="uni0491" unicode="&#x491;" horiz-adv-x="1044" 
d="M1196 1354l-143 -537h-531l-219 -817h-311l295 1098h551l67 256h291z" />
    <glyph glyph-name="uni0492" unicode="&#x492;" horiz-adv-x="1314" 
d="M59 0l154 571h-156l60 217h153l174 646h1031l-78 -287h-715l-96 -359h348l-60 -217h-348l-151 -571h-316z" />
    <glyph glyph-name="uni0493" unicode="&#x493;" horiz-adv-x="1085" 
d="M33 0l110 416h-137l47 174h137l138 508h841l-75 -281h-531l-61 -227h254l-47 -174h-254l-111 -416h-311z" />
    <glyph glyph-name="uni0496" unicode="&#x496;" horiz-adv-x="2209" 
d="M1522 1434l-164 -586h69l603 586h405l-795 -746l258 -401h289l-155 -578h-295l80 291h-84l-359 594h-84l-153 -594h-316l164 594h-76l-633 -594h-405l838 760l-400 674h350l326 -586h68l153 586h316z" />
    <glyph glyph-name="uni0497" unicode="&#x497;" horiz-adv-x="1859" 
d="M1214 1098l-114 -418h69l406 418h379l-576 -566l144 -251h235l-145 -543h-281l72 262h-53l-228 428h-90l-110 -428h-312l119 428h-80l-424 -428h-379l607 582l-295 516h331l226 -418h82l106 418h311z" />
    <glyph glyph-name="uni0498" unicode="&#x498;" horiz-adv-x="1359" 
d="M336 -291l94 289q-253 52 -428 246l205 205q98 -98 206.5 -145.5t241.5 -47.5q116 0 190.5 51t74.5 125q0 160 -244 160h-264l71 262h240q147 0 224 47t77 129q0 66 -55 107t-154 41q-203 0 -420 -140l-143 240q121 82 272.5 131t304.5 49q243 0 387 -106t144 -273
q0 -144 -89 -236.5t-235 -137.5q88 -41 145.5 -115t57.5 -176q0 -95 -43.5 -175.5t-117.5 -135t-169 -87t-202 -39.5l-64 -268h-307z" />
    <glyph glyph-name="uni0499" unicode="&#x499;" horiz-adv-x="1163" 
d="M229 -262l86 260q-191 42 -329 162l161 196q164 -131 373 -131q85 0 136 33t51 82q0 98 -162 98h-234l60 224h217q192 0 192 110q0 46 -39 71t-112 25q-172 0 -338 -90l-117 217q107 60 219.5 91.5t257.5 31.5q214 0 330.5 -86.5t116.5 -220.5q0 -106 -70.5 -177.5
t-177.5 -101.5q80 -38 118 -91.5t38 -139.5q0 -123 -116 -217t-312 -107l-56 -239h-293z" />
    <glyph glyph-name="uni049A" unicode="&#x49a;" horiz-adv-x="1517" 
d="M25 0l385 1434h315l-160 -586h88l629 586h420l-828 -734l295 -413h277l-76 -285l2 -2h-4l-78 -291h-295l80 291h-59l-408 594h-112l-156 -594h-315z" />
    <glyph glyph-name="uni049B" unicode="&#x49b;" horiz-adv-x="1261" 
d="M-8 0l295 1098h311l-117 -418h90l398 418h403l-590 -580l140 -237h254l-146 -543h-280l71 262h-73l-236 428h-98l-111 -428h-311z" />
    <glyph glyph-name="uni049C" unicode="&#x49c;" horiz-adv-x="1558" 
d="M1405 0h-342l-250 584l-94 -369h-187l107 379h-139l-160 -594h-315l385 1434h315l-158 -586h140l102 401h186l-102 -368l481 553h373l-670 -738z" />
    <glyph glyph-name="uni049D" unicode="&#x49d;" horiz-adv-x="1333" 
d="M1139 0h-320l-162 434h-2l-77 -305h-146l82 305h-94l-117 -434h-311l295 1098h311l-115 -428h95l77 291h146l-78 -277l362 414h373l-551 -568z" />
    <glyph glyph-name="uni04A0" unicode="&#x4a0;" horiz-adv-x="1796" 
d="M322 0l309 1153h-434l75 281h750l-160 -586h88l629 586h420l-828 -734l498 -700h-356l-408 594h-112l-156 -594h-315z" />
    <glyph glyph-name="uni04A1" unicode="&#x4a1;" horiz-adv-x="1470" 
d="M225 0l221 827h-303l72 271h616l-116 -418h90l397 418h404l-590 -580l301 -518h-336l-236 428h-98l-110 -428h-312z" />
    <glyph glyph-name="uni04A2" unicode="&#x4a2;" horiz-adv-x="1613" 
d="M25 0l385 1434h315l-152 -568h574l151 568h316l-309 -1147h192l-156 -578h-294l79 291h-213l156 575h-573l-156 -575h-315z" />
    <glyph glyph-name="uni04A3" unicode="&#x4a3;" horiz-adv-x="1368" 
d="M1307 1098l-220 -817h148l-145 -543h-281l72 262h-181l111 410h-397l-111 -410h-311l295 1098h311l-109 -404h398l108 404h312z" />
    <glyph glyph-name="uni04A4" unicode="&#x4a4;" horiz-adv-x="2088" 
d="M893 0l154 575h-553l-154 -575h-315l385 1434h315l-154 -568h553l154 568h969l-78 -287h-653l-308 -1147h-315z" />
    <glyph glyph-name="uni04A5" unicode="&#x4a5;" horiz-adv-x="1714" 
d="M682 0l109 410h-377l-111 -410h-311l295 1098h311l-106 -402h376l109 402h821l-76 -281h-512l-217 -817h-311z" />
    <glyph glyph-name="uni04AA" unicode="&#x4aa;" horiz-adv-x="1486" 
d="M471 -291l98 301q-199 61 -315.5 215.5t-116.5 374.5q0 168 67 324t187 276q121 121 281 189.5t338 68.5q386 0 573 -305l-260 -182q-45 64 -90.5 104.5t-112 66t-149.5 25.5q-189 0 -336 -147q-79 -79 -124.5 -185t-45.5 -223q0 -154 97.5 -250t252.5 -96q97 0 172 34.5
t164 107.5l205 -213q-223 -210 -514 -220l-64 -266h-307z" />
    <glyph glyph-name="uni04AB" unicode="&#x4ab;" horiz-adv-x="1146" 
d="M285 -262l92 278q-136 56 -213.5 174.5t-77.5 280.5q0 131 49.5 248.5t138.5 206.5q91 91 210 141.5t249 50.5q311 0 451 -241l-238 -168q-31 47 -59 75.5t-73.5 48t-104.5 19.5q-107 0 -197 -90q-55 -55 -87 -131.5t-32 -159.5q0 -104 61 -167.5t154 -63.5q69 0 126 26
t122 82l160 -203q-90 -79 -178 -120.5t-205 -47.5l-55 -239h-293z" />
    <glyph glyph-name="uni04AE" unicode="&#x4ae;" horiz-adv-x="1331" 
d="M346 0l152 565l-297 869h350l168 -594l491 594h381l-784 -897l-145 -537h-316z" />
    <glyph glyph-name="uni04AF" unicode="&#x4af;" horiz-adv-x="1212" 
d="M518 -328h-311l98 373l-131 1053h320l49 -723l436 723h334l-697 -1057z" />
    <glyph glyph-name="uni04B0" unicode="&#x4b0;" horiz-adv-x="1331" 
d="M346 0l98 367h-321l55 217h314l-291 850h350l168 -594l491 594h381l-743 -850h307l-55 -217h-340l-98 -367h-316z" />
    <glyph glyph-name="uni04B1" unicode="&#x4b1;" horiz-adv-x="1212" 
d="M1313 1098l-611 -924h252l-47 -174h-303l-86 -328h-311l86 328h-295l47 174h246l-117 924h320l49 -723l436 723h334z" />
    <glyph glyph-name="uni04B2" unicode="&#x4b2;" horiz-adv-x="1517" 
d="M-104 0l692 743l-307 691h354l180 -461l402 461h403l-674 -725l189 -422h268l-156 -578h-295l80 291h-123l-192 481l-418 -481h-403z" />
    <glyph glyph-name="uni04B3" unicode="&#x4b3;" horiz-adv-x="1226" 
d="M526 1098l123 -307l258 307h371l-514 -555l117 -262h247l-145 -543h-281l72 262h-100l-127 326l-279 -326h-370l536 573l-239 525h331z" />
    <glyph glyph-name="uni04B6" unicode="&#x4b6;" horiz-adv-x="1511" 
d="M811 0l119 451q-115 -21 -221 -21q-78 0 -146.5 12.5t-132 42t-109 75t-73 117t-27.5 161.5q0 89 31 206l104 390h316l-111 -414q-24 -87 -24 -137q0 -166 231 -166q131 0 242 24l186 693h315l-309 -1147h193l-156 -578h-295l80 291h-213z" />
    <glyph glyph-name="uni04B7" unicode="&#x4b7;" horiz-adv-x="1277" 
d="M1217 1098l-220 -817h148l-146 -543h-280l72 262h-181l82 311q-63 -8 -149 -8q-196 0 -305 79t-109 239q0 76 35 204l74 273h309l-88 -330q-13 -54 -13 -82q0 -56 45 -82t140 -26q86 0 135 10l139 510h312z" />
    <glyph glyph-name="uni04B8" unicode="&#x4b8;" horiz-adv-x="1445" 
d="M754 1106h186l-109 -389q97 6 179 24l186 693h315l-385 -1434h-315l119 451q-99 -19 -174 -21l-76 -297h-186l84 305q-77 13 -139 41t-112 74.5t-78 119t-28 165.5q0 89 31 206l104 390h316l-111 -414q-24 -87 -24 -137q0 -121 118 -154z" />
    <glyph glyph-name="uni04B9" unicode="&#x4b9;" horiz-adv-x="1208" 
d="M731 854l-76 -276q70 0 111 10l139 510h312l-295 -1098h-312l82 311q-49 -8 -110 -8l-54 -209h-145l59 215q-150 18 -231.5 96t-81.5 216q0 76 35 204l74 273h309l-88 -330q-13 -54 -13 -82q0 -70 72 -94l68 262h145z" />
    <glyph glyph-name="uni04BA" unicode="&#x4ba;" horiz-adv-x="1443" 
d="M727 1434l-119 -451q115 21 221 21q78 0 146.5 -12.5t132 -42t109 -75t73 -117t27.5 -161.5t-31 -207l-104 -389h-316l111 414q24 87 24 137q0 166 -231 166q-126 0 -242 -25l-186 -692h-315l385 1434h315z" />
    <glyph glyph-name="uni04BB" unicode="&#x4bb;" horiz-adv-x="1271" 
d="M-8 0l401 1495h312l-138 -512q147 135 297 135q149 0 236.5 -85.5t87.5 -233.5q0 -65 -37 -209l-158 -590h-311l162 602q14 54 14 98q0 66 -39.5 101t-111.5 35q-89 0 -150 -59t-88 -161l-166 -616h-311z" />
    <glyph glyph-name="uni04C0" unicode="&#x4c0;" horiz-adv-x="688" 
d="M39 0l385 1434h315l-385 -1434h-315z" />
    <glyph glyph-name="uni04C1" unicode="&#x4c1;" horiz-adv-x="2228" 
d="M1522 1434l-164 -586h69l603 586h405l-795 -746l443 -688h-350l-359 594h-84l-153 -594h-316l164 594h-76l-633 -594h-405l838 760l-400 674h350l326 -586h68l153 586h316zM1399 1542q-166 0 -249.5 80t-59.5 225h198q13 -100 154 -100q73 0 119 25t79 75h228
q-52 -145 -177.5 -225t-291.5 -80z" />
    <glyph glyph-name="uni04C2" unicode="&#x4c2;" horiz-adv-x="1822" 
d="M1214 1098l-114 -418h69l406 418h379l-576 -566l303 -532h-331l-228 428h-90l-110 -428h-312l119 428h-80l-424 -428h-379l607 582l-295 516h331l226 -418h82l106 418h311zM1110 1214q-89 0 -156.5 26.5t-106.5 72.5t-58 103t-17 124h213q3 -53 39.5 -88t99.5 -35
q76 0 123 31.5t86 91.5h215q-48 -145 -162.5 -235.5t-275.5 -90.5z" />
    <glyph glyph-name="uni04CF" unicode="&#x4cf;" horiz-adv-x="618" 
d="M6 0l402 1495h311l-402 -1495h-311z" />
    <glyph glyph-name="uni04D0" unicode="&#x4d0;" horiz-adv-x="1566" 
d="M-117 0l1002 1444h303l227 -1444h-323l-45 322h-607l-217 -322h-340zM629 600h381l-66 473zM1067 1563q-166 0 -249.5 80t-59.5 225h198q13 -101 154 -101q73 0 119.5 25.5t79.5 75.5h227q-52 -145 -177.5 -225t-291.5 -80z" />
    <glyph glyph-name="uni04D1" unicode="&#x4d1;" horiz-adv-x="1204" 
d="M334 -20q-142 0 -231 82.5t-89 211.5q0 160 105 265q131 131 368 131q155 0 310 -49l4 14q12 50 12 82q0 129 -207 129q-148 0 -293 -60l-49 246q188 78 408 78q219 0 331.5 -87.5t112.5 -250.5q0 -72 -24 -166l-162 -606h-301l33 127q-138 -147 -328 -147zM467 193
q94 0 171.5 64.5t104.5 156.5l9 28q-103 39 -205 39q-117 0 -178 -61q-45 -45 -45 -111q0 -52 39 -84t104 -32zM793 1214q-89 0 -156.5 26.5t-106.5 72.5t-58 103t-17 124h213q3 -53 39.5 -88t99.5 -35q76 0 123 31.5t86 91.5h215q-48 -145 -162.5 -235.5t-275.5 -90.5z" />
    <glyph glyph-name="uni04D2" unicode="&#x4d2;" horiz-adv-x="1566" 
d="M-117 0l1002 1444h303l227 -1444h-323l-45 322h-607l-217 -322h-340zM629 600h381l-66 473zM698 1567l72 260h299l-72 -260h-299zM1145 1567l72 260h299l-72 -260h-299z" />
    <glyph glyph-name="uni04D3" unicode="&#x4d3;" horiz-adv-x="1204" 
d="M334 -20q-142 0 -231 82.5t-89 211.5q0 160 105 265q131 131 368 131q155 0 310 -49l4 14q12 50 12 82q0 129 -207 129q-148 0 -293 -60l-49 246q188 78 408 78q219 0 331.5 -87.5t112.5 -250.5q0 -72 -24 -166l-162 -606h-301l33 127q-138 -147 -328 -147zM467 193
q94 0 171.5 64.5t104.5 156.5l9 28q-103 39 -205 39q-117 0 -178 -61q-45 -45 -45 -111q0 -52 39 -84t104 -32zM397 1219l76 276h299l-76 -276h-299zM836 1219l75 276h299l-75 -276h-299z" />
    <glyph glyph-name="uni04D4" unicode="&#x4d4;" horiz-adv-x="2166" 
d="M-125 0l1157 1434h1254l-76 -281h-717l-78 -293h625l-76 -276h-625l-82 -303h730l-76 -281h-1041l86 322h-483l-256 -322h-342zM696 600h336l150 561h-39z" />
    <glyph glyph-name="uni04D5" unicode="&#x4d5;" horiz-adv-x="1925" 
d="M365 -20q-166 0 -258.5 80t-92.5 214q0 160 105 265q131 131 368 131q155 0 310 -49l4 14q12 50 12 82q0 129 -207 129q-148 0 -293 -60l-49 246q188 78 408 78q268 0 360 -162q170 170 395 170q201 0 320 -120.5t119 -307.5q0 -116 -56 -250h-753q8 -101 70.5 -158
t181.5 -57q117 0 243 88l144 -192q-72 -66 -182.5 -106t-239.5 -40q-142 0 -249.5 53.5t-168.5 157.5q-200 -206 -491 -206zM487 193q75 0 163 37t153 102q-9 43 -12 94q-124 55 -244 55q-117 0 -178 -61q-45 -45 -45 -111q0 -53 42 -84.5t121 -31.5zM1174 776
q-59 -59 -89 -141h478q10 33 10 72q0 72 -44.5 116.5t-135.5 44.5q-127 0 -219 -92z" />
    <glyph glyph-name="uni04D6" unicode="&#x4d6;" horiz-adv-x="1361" 
d="M25 0l385 1434h1071l-76 -281h-758l-78 -293h666l-76 -276h-665l-82 -303h770l-76 -281h-1081zM971 1542q-166 0 -249.5 80t-59.5 225h198q13 -100 154 -100q73 0 119 25t79 75h228q-52 -145 -177.5 -225t-291.5 -80z" />
    <glyph glyph-name="uni04D7" unicode="&#x4d7;" horiz-adv-x="1243" 
d="M1128 440h-753q8 -101 70.5 -158t181.5 -57q117 0 243 88l144 -192q-174 -146 -422 -146q-236 0 -372 130.5t-136 357.5q0 127 52.5 251t146.5 218q186 186 452 186q209 0 329 -120t120 -308q0 -116 -56 -250zM840 1214q-89 0 -156.5 26.5t-106.5 72.5t-58 103t-17 124
h213q3 -53 39.5 -88t99.5 -35q76 0 123 31.5t86 91.5h215q-48 -145 -162.5 -235.5t-275.5 -90.5zM492 776q-59 -59 -89 -141h478q10 33 10 72q0 72 -44.5 116.5t-135.5 44.5q-127 0 -219 -92z" />
    <glyph glyph-name="uni04D8" unicode="&#x4d8;" horiz-adv-x="1630" 
d="M137 530q0 152 68 324h1065q-6 135 -96.5 222t-260.5 87q-195 0 -401 -135l-152 246q281 180 570 180q297 0 474 -171t177 -458q0 -167 -63.5 -323t-182.5 -275q-252 -252 -602 -252q-276 0 -436 152.5t-160 402.5zM1102 403q85 85 127 187h-774q-9 -41 -9 -70
q0 -50 17 -94.5t51.5 -82.5t96 -60.5t143.5 -22.5q111 0 200.5 42.5t147.5 100.5z" />
    <glyph glyph-name="uni04D9" unicode="&#x4d9;" horiz-adv-x="1243" 
d="M63 408q0 115 56 249h751q-8 101 -69 158t-180 57q-118 0 -244 -88l-144 193q173 145 422 145q236 0 372 -130t136 -357q0 -128 -52 -251.5t-146 -217.5q-186 -186 -453 -186q-209 0 -329 120t-120 308zM756 322q58 58 88 141h-477q-11 -37 -11 -72q0 -72 45 -117
t136 -45q126 0 219 93z" />
    <glyph glyph-name="uni04DC" unicode="&#x4dc;" horiz-adv-x="2228" 
d="M1522 1434l-164 -586h69l603 586h405l-795 -746l443 -688h-350l-359 594h-84l-153 -594h-316l164 594h-76l-633 -594h-405l838 760l-400 674h350l326 -586h68l153 586h316zM1475 1546l71 260h299l-71 -260h-299zM1028 1546l72 260h299l-72 -260h-299z" />
    <glyph glyph-name="uni04DD" unicode="&#x4dd;" horiz-adv-x="1822" 
d="M1214 1098l-114 -418h69l406 418h379l-576 -566l303 -532h-331l-228 428h-90l-110 -428h-312l119 428h-80l-424 -428h-379l607 582l-295 516h331l226 -418h82l106 418h311zM1155 1219l76 276h299l-76 -276h-299zM717 1219l76 276h299l-76 -276h-299z" />
    <glyph glyph-name="uni04DE" unicode="&#x4de;" horiz-adv-x="1359" 
d="M395 1038l-143 240q121 82 272.5 131t304.5 49q243 0 387 -106t144 -273q0 -144 -89 -236.5t-235 -137.5q88 -41 145.5 -115t57.5 -176q0 -134 -85 -236t-217 -152.5t-286 -50.5q-221 0 -376.5 70.5t-272.5 198.5l205 205q98 -98 206.5 -145.5t241.5 -47.5
q116 0 190.5 51t74.5 125q0 160 -244 160h-264l71 262h240q147 0 224 47t77 129q0 66 -55 107t-154 41q-203 0 -420 -140zM541 1567l71 260h299l-71 -260h-299zM987 1567l72 260h299l-72 -260h-299z" />
    <glyph glyph-name="uni04DF" unicode="&#x4df;" horiz-adv-x="1163" 
d="M524 -25q-321 0 -538 185l161 196q164 -131 373 -131q85 0 136 33t51 82q0 98 -162 98h-234l60 224h217q192 0 192 110q0 46 -39 71t-112 25q-172 0 -338 -90l-117 217q107 60 219.5 91.5t257.5 31.5q214 0 330.5 -86.5t116.5 -220.5q0 -106 -70.5 -177.5t-177.5 -101.5
q80 -38 118 -91.5t38 -139.5q0 -132 -131 -229t-351 -97zM338 1219l76 276h299l-76 -276h-299zM776 1219l76 276h299l-76 -276h-299z" />
    <glyph glyph-name="uni04E2" unicode="&#x4e2;" horiz-adv-x="1617" 
d="M1376 1434h307l-385 -1434h-315l242 905l-916 -905h-284l385 1434h315l-236 -877zM680 1556l59 220h779l-60 -220h-778z" />
    <glyph glyph-name="uni04E3" unicode="&#x4e3;" horiz-adv-x="1312" 
d="M1022 1098h299l-295 -1098h-309l164 616l-607 -616h-282l295 1098h309l-160 -594zM459 1229l57 215h737l-57 -215h-737z" />
    <glyph glyph-name="uni04E4" unicode="&#x4e4;" horiz-adv-x="1617" 
d="M1376 1434h307l-385 -1434h-315l242 905l-916 -905h-284l385 1434h315l-236 -877zM692 1546l72 260h299l-72 -260h-299zM1139 1546l71 260h299l-71 -260h-299z" />
    <glyph glyph-name="uni04E5" unicode="&#x4e5;" horiz-adv-x="1312" 
d="M1022 1098h299l-295 -1098h-309l164 616l-607 -616h-282l295 1098h309l-160 -594zM457 1219l75 276h299l-75 -276h-299zM895 1219l76 276h299l-76 -276h-299z" />
    <glyph glyph-name="uni04E6" unicode="&#x4e6;" horiz-adv-x="1703" 
d="M999 1458q145 0 268.5 -49t208 -133.5t132 -201.5t47.5 -251q0 -164 -66 -321t-186 -277q-118 -118 -273 -184t-337 -66q-145 0 -268.5 49t-208 133.5t-132 201.5t-47.5 251q0 164 66 321t186 277q118 118 273 184t337 66zM829 266q190 0 332 142q77 77 121.5 184
t44.5 211q0 164 -95.5 264t-268.5 100q-191 0 -332 -141q-77 -77 -121.5 -184t-44.5 -211q0 -164 95.5 -264.5t268.5 -100.5zM735 1567l72 260h299l-72 -260h-299zM1182 1567l71 260h299l-71 -260h-299z" />
    <glyph glyph-name="uni04E7" unicode="&#x4e7;" horiz-adv-x="1335" 
d="M614 -25q-241 0 -384.5 142.5t-143.5 365.5q0 124 50 240.5t140 206.5q89 89 203.5 138.5t241.5 49.5q241 0 384.5 -142.5t143.5 -365.5q0 -123 -50 -239.5t-140 -206.5q-89 -89 -203.5 -139t-241.5 -50zM629 242q112 0 198 86q55 53 86 129.5t31 144.5
q0 119 -64.5 184.5t-172.5 65.5q-113 0 -199 -86q-55 -53 -86 -129.5t-31 -144.5q0 -119 65 -184.5t173 -65.5zM471 1219l76 276h299l-76 -276h-299zM909 1219l76 276h299l-76 -276h-299z" />
    <glyph glyph-name="uni04E8" unicode="&#x4e8;" horiz-adv-x="1691" 
d="M993 1458q192 0 340.5 -83.5t228.5 -228t80 -323.5q0 -164 -65.5 -321t-183.5 -277q-116 -118 -271 -184t-336 -66q-192 0 -340.5 83.5t-228.5 228t-80 323.5q0 164 65.5 321t184.5 277q116 118 270.5 184t335.5 66zM1163 395q77 77 123 191h-835q12 -153 109.5 -244.5
t262.5 -91.5q195 0 340 145zM956 1184q-194 0 -340 -146q-73 -73 -120 -180h831q-15 149 -112 237.5t-259 88.5z" />
    <glyph glyph-name="uni04E9" unicode="&#x4e9;" horiz-adv-x="1323" 
d="M608 -25q-238 0 -380 142.5t-142 365.5q0 125 48.5 241.5t137.5 205.5t203.5 138.5t239.5 49.5q238 0 380 -142.5t142 -365.5q0 -125 -48.5 -241t-137.5 -205q-90 -90 -204 -139.5t-239 -49.5zM623 221q127 0 223 96q55 55 80 115h-557q17 -102 84 -156.5t170 -54.5z
M479 778q-57 -57 -82 -114h555q-17 100 -84 154t-168 54q-127 0 -221 -94z" />
    <glyph glyph-name="uni04EE" unicode="&#x4ee;" horiz-adv-x="1447" 
d="M1665 1434l-1161 -1434h-365l410 504l-303 930h334l198 -666l522 666h365zM557 1556l59 220h779l-60 -220h-778z" />
    <glyph glyph-name="uni04EF" unicode="&#x4ef;" horiz-adv-x="1212" 
d="M326 -8l-136 1106h318l51 -746l412 746h336l-680 -1125q-107 -167 -210 -237t-243 -70q-146 0 -256 76l166 225q57 -43 121 -43q37 0 63.5 14t57.5 54zM401 1229l58 215h737l-57 -215h-738z" />
    <glyph glyph-name="uni04F0" unicode="&#x4f0;" horiz-adv-x="1447" 
d="M1665 1434l-1161 -1434h-365l410 504l-303 930h334l198 -666l522 666h365zM1016 1546l71 260h299l-71 -260h-299zM569 1546l72 260h299l-72 -260h-299z" />
    <glyph glyph-name="uni04F1" unicode="&#x4f1;" horiz-adv-x="1212" 
d="M326 -8l-136 1106h318l51 -746l412 746h336l-680 -1125q-107 -167 -210 -237t-243 -70q-146 0 -256 76l166 225q57 -43 121 -43q37 0 63.5 14t57.5 54zM399 1219l76 276h299l-76 -276h-299zM838 1219l75 276h299l-75 -276h-299z" />
    <glyph glyph-name="uni04F2" unicode="&#x4f2;" horiz-adv-x="1447" 
d="M1665 1434l-1161 -1434h-365l410 504l-303 930h334l198 -666l522 666h365zM967 1546l336 322l249 -117l-333 -205h-252zM565 1546l336 322l250 -117l-334 -205h-252z" />
    <glyph glyph-name="uni04F3" unicode="&#x4f3;" horiz-adv-x="1212" 
d="M326 -8l-136 1106h318l51 -746l412 746h336l-680 -1125q-107 -167 -210 -237t-243 -70q-146 0 -256 76l166 225q57 -43 121 -43q37 0 63.5 14t57.5 54zM336 1219l326 362l231 -117l-330 -245h-227zM735 1219l330 362l231 -117l-333 -245h-228z" />
    <glyph glyph-name="uni04F4" unicode="&#x4f4;" horiz-adv-x="1445" 
d="M811 0l119 451q-115 -21 -221 -21q-78 0 -146.5 12.5t-132 42t-109 75t-73 117t-27.5 161.5q0 89 31 206l104 390h316l-111 -414q-24 -87 -24 -137q0 -166 231 -166q131 0 242 24l186 693h315l-385 -1434h-315zM569 1546l72 260h299l-72 -260h-299zM1016 1546l71 260h299
l-71 -260h-299z" />
    <glyph glyph-name="uni04F5" unicode="&#x4f5;" horiz-adv-x="1208" 
d="M1217 1098l-295 -1098h-312l82 311q-63 -8 -149 -8q-196 0 -305 79t-109 239q0 76 35 204l74 273h309l-88 -330q-13 -54 -13 -82q0 -56 45 -82t140 -26q86 0 135 10l139 510h312zM371 1219l75 276h299l-75 -276h-299zM809 1219l76 276h299l-76 -276h-299z" />
    <glyph glyph-name="uni04F8" unicode="&#x4f8;" horiz-adv-x="2013" 
d="M25 0l385 1434h315l-121 -451h172q281 0 420 -139q113 -113 113 -293q0 -212 -146 -358q-193 -193 -579 -193h-559zM1378 0l385 1434h316l-385 -1434h-316zM979 528q0 74 -45 119q-58 58 -180 58h-226l-112 -422h225q184 0 274 90q64 64 64 155zM889 1546l72 260h299
l-72 -260h-299zM1335 1546l72 260h299l-72 -260h-299z" />
    <glyph glyph-name="uni04F9" unicode="&#x4f9;" horiz-adv-x="1703" 
d="M1053 442q0 -200 -155 -321t-437 -121h-469l295 1098h311l-82 -314h78q231 0 345 -91t114 -251zM1106 0l295 1098h311l-295 -1098h-311zM750 420q0 119 -166 119h-140l-75 -289h137q120 0 182 47t62 123zM1100 1219l76 276h299l-76 -276h-299zM662 1219l75 276h299
l-75 -276h-299z" />
    <glyph glyph-name="baht" unicode="&#xe3f;" horiz-adv-x="1320" 
d="M-14 0l385 1434h489l60 163h196l-67 -180q158 -32 237.5 -122.5t79.5 -213.5q0 -142 -85.5 -235.5t-246.5 -130.5q178 -89 178 -279q0 -197 -162 -316.5t-454 -119.5h-55l-84 -242h-197l84 242h-358zM926 457q0 70 -46 110t-135 43l-124 -352h45q119 0 189.5 53.5
t70.5 145.5zM492 836h165l121 340h-198zM1079 1028q0 120 -135 143l-119 -335q121 2 187.5 49.5t66.5 142.5zM336 258h117l125 352h-150z" />
    <glyph glyph-name="Wgrave" unicode="&#x1e80;" horiz-adv-x="2269" 
d="M369 -10l-103 1444h328l37 -971l577 975h271l65 -975l557 971h357l-877 -1444h-293l-69 919l-562 -919h-288zM1251 1546l-223 205l277 117l159 -322h-213z" />
    <glyph glyph-name="wgrave" unicode="&#x1e81;" horiz-adv-x="1755" 
d="M223 -8l-41 1106h316l-2 -666l385 670h268l29 -672l360 668h309l-639 -1106h-280l-31 674l-395 -674h-279zM922 1219l-195 245l274 117l134 -362h-213z" />
    <glyph glyph-name="Wacute" unicode="&#x1e82;" horiz-adv-x="2269" 
d="M369 -10l-103 1444h328l37 -971l577 975h271l65 -975l557 971h357l-877 -1444h-293l-69 919l-562 -919h-288zM1241 1546l336 322l260 -117l-334 -205h-262z" />
    <glyph glyph-name="wacute" unicode="&#x1e83;" horiz-adv-x="1755" 
d="M223 -8l-41 1106h316l-2 -666l385 670h268l29 -672l360 668h309l-639 -1106h-280l-31 674l-395 -674h-279zM915 1219l330 362l262 -117l-329 -245h-263z" />
    <glyph glyph-name="Wdieresis" unicode="&#x1e84;" horiz-adv-x="2269" 
d="M369 -10l-103 1444h328l37 -971l577 975h271l65 -975l557 971h357l-877 -1444h-293l-69 919l-562 -919h-288zM1004 1546l71 260h299l-71 -260h-299zM1450 1546l72 260h299l-72 -260h-299z" />
    <glyph glyph-name="wdieresis" unicode="&#x1e85;" horiz-adv-x="1755" 
d="M223 -8l-41 1106h316l-2 -666l385 670h268l29 -672l360 668h309l-639 -1106h-280l-31 674l-395 -674h-279zM676 1219l76 276h299l-76 -276h-299zM1114 1219l76 276h299l-76 -276h-299z" />
    <glyph glyph-name="Ygrave" unicode="&#x1ef2;" horiz-adv-x="1331" 
d="M346 0l152 565l-297 869h350l168 -594l491 594h381l-784 -897l-145 -537h-316zM778 1546l-223 205l276 117l160 -322h-213z" />
    <glyph glyph-name="ygrave" unicode="&#x1ef3;" horiz-adv-x="1212" 
d="M326 -8l-136 1106h318l51 -746l412 746h336l-680 -1125q-107 -167 -210 -237t-243 -70q-146 0 -256 76l166 225q57 -43 121 -43q37 0 63.5 14t57.5 54zM645 1219l-194 245l274 117l133 -362h-213z" />
    <glyph glyph-name="enspace" unicode="&#x2002;" 
 />
    <glyph glyph-name="emspace" unicode="&#x2003;" horiz-adv-x="2048" 
 />
    <glyph glyph-name="threeperemspace" unicode="&#x2004;" horiz-adv-x="681" 
 />
    <glyph glyph-name="fourperemspace" unicode="&#x2005;" horiz-adv-x="512" 
 />
    <glyph glyph-name="figurespace" unicode="&#x2007;" horiz-adv-x="1228" 
 />
    <glyph glyph-name="thinspace" unicode="&#x2009;" horiz-adv-x="272" 
 />
    <glyph glyph-name="hairspace" unicode="&#x200a;" horiz-adv-x="153" 
 />
    <glyph glyph-name="endash" unicode="&#x2013;" horiz-adv-x="1087" 
d="M90 489l78 291h876l-77 -291h-877z" />
    <glyph glyph-name="emdash" unicode="&#x2014;" horiz-adv-x="1845" 
d="M90 489l78 291h1634l-78 -291h-1634z" />
    <glyph glyph-name="quoteleft" unicode="&#x2018;" horiz-adv-x="585" 
d="M180 786l74 277q53 199 165.5 288.5t299.5 94.5l20 -129q-235 -20 -266 -203h127l-88 -328h-332z" />
    <glyph glyph-name="quoteright" unicode="&#x2019;" horiz-adv-x="585" 
d="M166 774l-21 129q236 20 267 203h-127l88 328h332l-74 -277q-53 -199 -165.5 -288.5t-299.5 -94.5z" />
    <glyph glyph-name="quotesinglbase" unicode="&#x201a;" horiz-adv-x="585" 
d="M-139 -332l-21 129q235 20 266 203h-126l88 328h331l-73 -277q-53 -199 -165.5 -288.5t-299.5 -94.5z" />
    <glyph glyph-name="quotedblleft" unicode="&#x201c;" horiz-adv-x="1105" 
d="M180 784l74 277q53 199 165.5 288.5t299.5 94.5l20 -129q-235 -20 -266 -203h127l-88 -328h-332zM700 784l74 277q53 199 165.5 288.5t299.5 94.5l21 -129q-236 -20 -267 -203h127l-88 -328h-332z" />
    <glyph glyph-name="quotedblright" unicode="&#x201d;" horiz-adv-x="1105" 
d="M166 774l-21 129q236 20 267 203h-127l88 328h332l-74 -277q-53 -199 -165.5 -288.5t-299.5 -94.5zM686 774l-20 129q235 20 266 203h-127l88 328h332l-74 -277q-53 -199 -165.5 -288.5t-299.5 -94.5z" />
    <glyph glyph-name="quotedblbase" unicode="&#x201e;" horiz-adv-x="1105" 
d="M-139 -332l-21 129q235 20 266 203h-126l88 328h331l-73 -277q-53 -199 -165.5 -288.5t-299.5 -94.5zM381 -332l-21 129q236 20 267 203h-127l88 328h332l-74 -277q-53 -199 -165.5 -288.5t-299.5 -94.5z" />
    <glyph glyph-name="dagger" unicode="&#x2020;" horiz-adv-x="843" 
d="M319 487l168 553l-251 -20l47 170l237 -21l45 265h189l-99 -265l250 21l-47 -170l-240 20l-126 -553h-173z" />
    <glyph glyph-name="daggerdbl" unicode="&#x2021;" horiz-adv-x="884" 
d="M201 0l98 264l-250 -20l45 170l238 -21l69 324l105 323l-250 -20l47 170l238 -21l45 265h188l-98 -265l250 21l-47 -170l-238 20l-68 -323l-106 -324l250 21l-45 -170l-238 20l-45 -264h-188z" />
    <glyph glyph-name="bullet" unicode="&#x2022;" 
d="M610 1036q111 0 174.5 -64.5t63.5 -172.5q0 -80 -32 -158t-89 -135q-96 -96 -223 -96q-111 0 -174.5 64.5t-63.5 172.5q0 80 32 158t89 135q96 96 223 96z" />
    <glyph glyph-name="ellipsis" unicode="&#x2026;" horiz-adv-x="1720" 
d="M-20 0l86 319h323l-86 -319h-323zM551 0l86 319h324l-87 -319h-323zM1122 0l86 319h324l-86 -319h-324z" />
    <glyph glyph-name="perthousand" unicode="&#x2030;" horiz-adv-x="2637" 
d="M123 0l688 715l690 719h266l-688 -715l-690 -719h-266zM487 709q-142 0 -228.5 87.5t-86.5 227.5q0 87 34 169.5t95 143.5q113 113 268 113q142 0 229 -87.5t87 -227.5q0 -87 -34 -170t-95 -144q-112 -112 -269 -112zM500 887q61 0 108 47q35 35 55.5 87.5t20.5 104.5
q0 67 -34 106.5t-93 39.5q-61 0 -108 -47q-35 -35 -55.5 -88t-20.5 -105q0 -67 34 -106t93 -39zM1321 -16q-142 0 -228.5 87.5t-86.5 227.5q0 87 34 169.5t95 143.5q113 113 268 113q142 0 228.5 -87.5t86.5 -227.5q0 -87 -34 -170t-95 -144q-112 -112 -268 -112zM1333 162
q62 0 109 47q35 35 55.5 87.5t20.5 104.5q0 67 -34 106.5t-93 39.5q-62 0 -109 -47q-35 -35 -55.5 -88t-20.5 -105q0 -67 34 -106t93 -39zM2157 -16q-142 0 -229 87.5t-87 227.5q0 87 34 169.5t95 143.5q113 113 268 113q142 0 229 -87.5t87 -227.5q0 -87 -34 -170t-95 -144
q-112 -112 -268 -112zM2169 162q61 0 108 47q35 35 55.5 87.5t20.5 104.5q0 67 -34 106.5t-93 39.5q-61 0 -108 -47q-35 -35 -55.5 -88t-20.5 -105q0 -67 34 -106t93 -39z" />
    <glyph glyph-name="guilsinglleft" unicode="&#x2039;" horiz-adv-x="763" 
d="M336 68l-242 454l4 17l506 473l158 -156l-340 -354l143 -332z" />
    <glyph glyph-name="guilsinglright" unicode="&#x203a;" horiz-adv-x="763" 
d="M426 1012l242 -455l-4 -16l-506 -473l-158 155l340 355l-143 331z" />
    <glyph glyph-name="fraction" unicode="&#x2044;" horiz-adv-x="204" 
d="M-666 0l717 752l635 682h184l-716 -752l-635 -682h-185z" />
    <glyph glyph-name="zero.sup" unicode="&#x2070;" horiz-adv-x="819" 
d="M954 1389q0 -126 -45 -242.5t-123 -194.5q-112 -112 -256 -112q-129 0 -208.5 77.5t-79.5 212.5q0 126 45 242.5t123 194.5q112 112 256 112q129 0 208.5 -77.5t79.5 -212.5zM432 1141q0 -65 31 -99t82 -34q55 0 102 47q54 54 85.5 150.5t31.5 172.5q0 65 -31 99t-82 34
q-55 0 -102 -47q-54 -54 -85.5 -150.5t-31.5 -172.5z" />
    <glyph glyph-name="four.sup" unicode="&#x2074;" horiz-adv-x="819" 
d="M561 860l45 168h-385l31 170l506 473h186l-135 -502h106l-38 -141h-107l-45 -168h-164zM408 1167h237l80 299z" />
    <glyph glyph-name="five.sup" unicode="&#x2075;" horiz-adv-x="819" 
d="M518 840q-93 0 -183 38.5t-140 98.5l118 119q101 -90 207 -90q74 0 121 34t47 86q0 42 -38 71.5t-105 29.5q-57 0 -117 -29l-102 76l133 385h499l-40 -162h-349l-51 -143q41 12 103 12q118 0 189 -62t71 -167q0 -123 -100.5 -210t-262.5 -87z" />
    <glyph glyph-name="six.sup" unicode="&#x2076;" horiz-adv-x="819" 
d="M541 840q-141 0 -213 80.5t-72 214.5q0 105 46 220t128 197q127 127 301 127q135 0 221 -82l-94 -131q-59 52 -143 52q-103 0 -178 -78q-56 -59 -78 -127q78 67 196 67q91 0 155 -58t64 -161q0 -128 -93.5 -224.5t-239.5 -96.5zM547 989q66 0 109.5 43.5t43.5 102.5
q0 50 -30 79t-84 29q-70 0 -115 -45q-41 -41 -41 -98q0 -52 32 -81.5t85 -29.5z" />
    <glyph glyph-name="seven.sup" unicode="&#x2077;" horiz-adv-x="819" 
d="M236 856l493 637h-362l45 166h561l-39 -141l-504 -662h-194z" />
    <glyph glyph-name="eight.sup" unicode="&#x2078;" horiz-adv-x="819" 
d="M547 840q-128 0 -217.5 63t-89.5 166q0 88 55.5 145t148.5 78q-102 54 -102 160q0 90 81.5 158.5t225.5 68.5q128 0 209.5 -62.5t81.5 -158.5q0 -77 -47 -130.5t-133 -70.5q119 -61 119 -172q0 -101 -90 -173t-242 -72zM555 979q66 0 111 30.5t45 80.5q1 47 -40.5 76.5
t-107.5 29.5t-110 -31t-45 -80q0 -46 41 -76t106 -30zM639 1335q59 0 98 29t39 76q0 41 -34 69.5t-97 28.5q-61 0 -101 -28.5t-40 -73.5q-2 -42 35 -71.5t100 -29.5z" />
    <glyph glyph-name="nine.sup" unicode="&#x2079;" horiz-adv-x="819" 
d="M469 840q-75 0 -137.5 26t-100.5 66l95 131q68 -62 159 -62q104 0 174 70q52 52 78 131q-72 -72 -196 -72q-90 0 -154.5 59.5t-64.5 164.5q0 127 93.5 226t237.5 99q141 0 214 -81.5t73 -215.5q0 -107 -43 -221t-123 -194q-127 -127 -305 -127zM612 1268q68 0 113 45
q41 41 41 102q0 53 -32 84t-85 31q-67 -1 -110 -47t-43 -107q0 -51 31 -79.5t85 -28.5z" />
    <glyph glyph-name="zero.inf" unicode="&#x2080;" horiz-adv-x="819" 
d="M653 258q0 -126 -45 -242t-123 -194q-113 -113 -256 -113q-129 0 -208.5 78t-79.5 213q0 126 45 242t123 194q113 113 256 113q129 0 208.5 -78t79.5 -213zM131 10q0 -65 31 -99t82 -34q55 0 102 47q54 54 85.5 150.5t31.5 173.5q0 65 -31 99t-82 34q-55 0 -102 -47
q-54 -54 -85.5 -150.5t-31.5 -173.5z" />
    <glyph glyph-name="one.inf" unicode="&#x2081;" horiz-adv-x="665" 
d="M76 -270l164 612l-166 -57l-17 153l279 101h131l-215 -809h-176z" />
    <glyph glyph-name="two.inf" unicode="&#x2082;" horiz-adv-x="819" 
d="M-113 -270l41 153l410 287q55 38 79.5 68.5t24.5 64.5q0 36 -27.5 58t-72.5 22q-94 0 -201 -102l-108 118q137 150 315 150q129 0 205 -63.5t76 -166.5q0 -76 -41.5 -136.5t-163.5 -139.5l-248 -158h352l-41 -155h-600z" />
    <glyph glyph-name="three.inf" unicode="&#x2083;" horiz-adv-x="819" 
d="M215 -291q-202 0 -307 129l115 121q48 -45 91 -66.5t103 -21.5q66 0 111 34.5t45 78.5t-42.5 68t-119.5 24h-55l-11 108l258 185h-315l43 159h553l-37 -135l-287 -198q95 -15 146 -64.5t51 -132.5q0 -125 -97 -207t-245 -82z" />
    <glyph glyph-name="four.inf" unicode="&#x2084;" horiz-adv-x="819" 
d="M260 -270l45 168h-385l31 170l506 473h186l-135 -502h106l-39 -141h-106l-45 -168h-164zM106 37h238l80 299z" />
    <glyph glyph-name="five.inf" unicode="&#x2085;" horiz-adv-x="819" 
d="M217 -291q-93 0 -183 38.5t-140 98.5l118 119q101 -90 207 -90q73 0 120.5 34t47.5 87q0 42 -38 71t-105 29q-59 0 -117 -28l-102 75l133 385h499l-41 -161h-348l-51 -144q44 13 102 13q118 0 189.5 -62.5t71.5 -167.5q0 -123 -100.5 -210t-262.5 -87z" />
    <glyph glyph-name="six.inf" unicode="&#x2086;" horiz-adv-x="819" 
d="M240 -291q-141 0 -213 80.5t-72 214.5q0 106 46 221t128 197q127 127 301 127q135 0 221 -82l-94 -131q-58 51 -143 51q-103 0 -178 -78q-56 -59 -78 -127q80 68 196 68q91 0 155 -58t64 -161q0 -128 -94 -225t-239 -97zM246 -141q66 0 109.5 43t43.5 102
q0 50 -30.5 79.5t-83.5 29.5q-70 0 -115 -45q-41 -41 -41 -99q0 -52 32 -81t85 -29z" />
    <glyph glyph-name="seven.inf" unicode="&#x2087;" horiz-adv-x="819" 
d="M-45 -274l494 636h-363l45 166h561l-39 -141l-503 -661h-195z" />
    <glyph glyph-name="eight.inf" unicode="&#x2088;" horiz-adv-x="819" 
d="M244 -291q-127 0 -217 63.5t-90 166.5q0 88 55.5 145t148.5 78q-102 54 -102 160q0 90 81.5 158.5t225.5 68.5q128 0 209.5 -62.5t81.5 -158.5q0 -77 -47 -130.5t-133 -70.5q118 -61 118 -172q0 -101 -90 -173.5t-241 -72.5zM252 -152q66 0 111 30.5t45 80.5
q1 47 -40.5 77t-107.5 30t-110.5 -31t-45.5 -80q0 -46 41.5 -76.5t106.5 -30.5zM336 205q59 0 98 28.5t39 75.5q0 41 -34 70t-97 29q-61 0 -101 -29t-40 -74q-2 -42 34.5 -71t100.5 -29z" />
    <glyph glyph-name="nine.inf" unicode="&#x2089;" horiz-adv-x="819" 
d="M168 -291q-75 0 -137.5 26t-100.5 66l95 131q67 -61 159 -61q104 0 174 70q52 52 78 131q-72 -72 -196 -72q-91 0 -155.5 59t-64.5 164q0 127 94 226.5t238 99.5q141 0 214 -81.5t73 -215.5q0 -107 -43 -221.5t-123 -194.5q-127 -127 -305 -127zM311 137q68 0 113 45
q41 41 41 103q0 53 -32 83.5t-85 30.5q-67 -1 -110 -46.5t-43 -106.5q0 -51 31 -80t85 -29z" />
    <glyph glyph-name="colonmonetary" unicode="&#x20a1;" horiz-adv-x="1269" 
d="M1198 1597h141l-104 -262q84 -52 139 -116l-166 -242q-55 59 -86 86l-309 -791q56 13 99 40.5t92 70.5l133 -221q-81 -67 -192.5 -111.5t-231.5 -50.5l-95 -242h-141l96 250q-56 7 -127 33l-110 -283h-141l135 344q-114 78 -175 205.5t-61 284.5q0 184 64.5 349
t181.5 282q208 208 510 211l65 163h142l-70 -174q79 -14 129 -32zM541 297q59 -29 139 -35l340 868q-71 31 -137 39zM389 584q0 -125 55 -205l308 784q-108 -23 -187 -102q-89 -89 -132.5 -224t-43.5 -253z" />
    <glyph glyph-name="naira" unicode="&#x20a6;" horiz-adv-x="1720" 
d="M1630 406h-219l-108 -406h-310l-129 406h-340l-108 -406h-297l108 406h-213l52 188h210l70 254h-213l51 188h213l107 398h332l125 -398h323l107 398h297l-107 -398h219l-51 -188h-219l-70 -254h221zM676 991l-109 -405h248l-129 405h-10zM1128 471h11l102 385h-231z" />
    <glyph glyph-name="rupee" unicode="&#x20a8;" horiz-adv-x="2273" 
d="M1866 305q0 36 -30 62t-107 59q-60 26 -94 42t-80.5 46t-71 59t-42.5 73t-18 97q0 161 121 267t309 106q226 0 414 -135l-149 -203q-145 109 -285 109q-57 0 -93 -26t-36 -68q0 -36 32.5 -63t108.5 -62q43 -20 65 -30.5t59.5 -31t57.5 -36.5t46 -40.5t39 -49.5t22.5 -58
t9.5 -70q0 -170 -125.5 -273.5t-312.5 -103.5q-127 0 -252 45.5t-223 131.5l164 186q77 -73 162 -103t157 -30q71 0 111.5 27t40.5 73zM772 0l-162 471h-182l-127 -471h-295l385 1434h416q93 0 170.5 -16.5t130.5 -43t93.5 -64t64 -76t38.5 -82t20 -78.5t5 -70
q0 -205 -116 -338t-308 -174l189 -492h-322zM500 733h196q153 0 238.5 64.5t85.5 183.5q0 76 -53.5 129t-173.5 53h-179z" />
    <glyph glyph-name="won" unicode="&#x20a9;" horiz-adv-x="2293" 
d="M2193 416h-335l-222 -420h-374l8 420h-326l-215 -420h-371l2 420h-331l51 198h282v203h-227l53 199h177l4 418h327l-24 -418h293l223 422h350l2 -422h299l195 418h362l-221 -418h180l-53 -199h-231l-109 -203h285zM1272 1053l-238 -449h246l4 449h-12zM1532 350h12
l215 477h-225zM618 350h13l246 477h-226z" />
    <glyph glyph-name="sheqel" unicode="&#x20aa;" horiz-adv-x="1290" 
d="M-31 0l291 1098h371q143 0 215 -61.5t72 -170.5q0 -42 -17 -112l-86 -316h-147l41 156q18 74 18 119q0 71 -43.5 102t-128.5 31h-131l-225 -846h-230zM784 0q-213 0 -299 93t-67 278l31 288h147l-14 -194q-10 -127 38 -170t177 -43h67l226 846h231l-293 -1098h-244z" />
    <glyph glyph-name="Euro" unicode="&#x20ac;" horiz-adv-x="1474" 
d="M141 791l56 206h147q67 149 174 256q205 205 498 205q400 0 518 -334l-268 -133q-46 95 -105 139t-164 44q-138 0 -235 -97q-41 -41 -64 -80h396l-56 -206h-420q-24 -77 -32 -140h415l-55 -207h-362q20 -91 82 -137.5t151 -46.5q87 0 152.5 33.5t136.5 109.5l213 -184
q-204 -244 -508 -244q-234 0 -381.5 125.5t-175.5 343.5h-205l55 207h154q9 74 27 140h-144z" />
    <glyph glyph-name="peso" unicode="&#x20b1;" horiz-adv-x="1562" 
d="M1610 827h-172q-40 -133 -138 -231q-96 -98 -239 -150.5t-311 -52.5h-211l-105 -393h-315l221 827h-205l47 179h207l115 428h393q156 0 265 -34.5t186 -111.5q104 -104 110 -282h199zM600 653h170q186 0 285 99q36 36 57 86h-463zM737 1165l-47 -170h445q-7 64 -48 105
q-65 65 -190 65h-160z" />
    <glyph glyph-name="hryvnia" unicode="&#x20b4;" horiz-adv-x="1323" 
d="M1200 457l-541 67l-41 -26q-72 -46 -102.5 -80t-30.5 -74q0 -102 140 -102q77 0 169.5 29t176.5 79l114 -239q-106 -61 -234 -98.5t-251 -37.5q-219 0 -334.5 95t-115.5 252q0 142 112 251l-184 25l51 129l287 -37l194 125l-422 53l50 129l548 -69l9 6q72 45 103.5 79.5
t31.5 73.5q0 103 -133 103q-126 0 -312 -107l-114 240q230 135 460 135q109 0 194 -28t136 -76t77 -107.5t26 -126.5q0 -128 -97 -239l193 -25l-51 -129l-279 35l-29 -19l-163 -106l413 -51z" />
    <glyph glyph-name="numero" unicode="&#x2116;" horiz-adv-x="2318" 
d="M6 0l385 1434h289l268 -899l236 899h305l-385 -1434h-268l-283 930l-240 -930h-307zM1890 563q-163 0 -255.5 96t-92.5 259q0 110 42 217.5t108 173.5q135 135 297 135q163 0 255.5 -95.5t92.5 -258.5q0 -111 -42 -218.5t-108 -173.5q-135 -135 -297 -135zM1896 756
q60 0 111 51q45 45 72.5 124.5t27.5 153.5q0 77 -32 121.5t-93 44.5q-59 0 -110 -51q-45 -45 -72.5 -124.5t-27.5 -153.5q0 -77 31.5 -121.5t92.5 -44.5zM1399 258l49 172h702l-53 -172h-698z" />
    <glyph glyph-name="published" unicode="&#x2117;" horiz-adv-x="1699" 
d="M731 1124h256q137 0 216 -63t79 -180q0 -140 -103.5 -224t-279.5 -84h-139l-64 -237h-176zM1104 868q0 101 -127 101h-113l-63 -242h108q88 0 141.5 36t53.5 105zM971 1458q147 0 270.5 -50t208 -137.5t131.5 -206.5t47 -255q0 -166 -64 -323t-180 -273
q-238 -238 -571 -238q-195 0 -346 86.5t-231 234t-80 329.5q0 167 63.5 323.5t179.5 272.5q237 237 572 237zM815 57q297 0 502 205q225 225 225 545q0 118 -39 221t-111 180.5t-181.5 122.5t-241.5 45q-297 0 -502 -205q-109 -109 -167 -247t-58 -293q0 -160 66.5 -289
t198.5 -207t308 -78z" />
    <glyph glyph-name="servicemark" unicode="&#x2120;" horiz-adv-x="1439" 
d="M410 791q-86 0 -157 31t-118 85l98 84q82 -88 191 -88q47 0 76.5 20.5t29.5 55.5q0 27 -22.5 45t-91.5 45q-88 34 -125 72.5t-37 97.5q0 80 55 135q72 72 199 72q148 0 235 -94l-88 -90q-71 71 -161 71q-49 0 -77 -20t-28 -51q0 -26 23.5 -46t97.5 -49
q83 -32 118.5 -68.5t35.5 -97.5q0 -83 -56 -139q-71 -71 -198 -71zM754 803l170 631h143l94 -267l238 267h155l-170 -631h-135l115 426l-248 -277h-12l-100 277l-115 -426h-135z" />
    <glyph glyph-name="trademark" unicode="&#x2122;" horiz-adv-x="1433" 
d="M283 803l135 504h-189l35 127h520l-34 -127h-189l-135 -504h-143zM748 803l170 631h143l94 -267l238 267h155l-170 -631h-135l115 426l-248 -277h-12l-101 277l-114 -426h-135z" />
    <glyph glyph-name="Omega" unicode="&#x2126;" horiz-adv-x="1773" 
d="M1016 1167q-207 0 -336 -129q-145 -145 -145 -387q0 -217 147 -387l-72 -264h-612l72 268h327q-82 99 -133 208t-51 247q0 145 53 273t152 227q111 111 269.5 173t348.5 62q307 0 482.5 -155.5t175.5 -405.5q0 -187 -103.5 -340.5t-294.5 -288.5h314l-72 -268h-657
l71 264q84 53 154.5 113.5t131 134t94.5 159.5t34 175q0 147 -94 234t-256 87z" />
    <glyph glyph-name="onethird" unicode="&#x2153;" horiz-adv-x="1689" 
d="M272 635l164 612l-166 -57l-16 153l278 101h132l-215 -809h-177zM1135 -20q-203 0 -308 129l115 120q48 -45 91.5 -66.5t103.5 -21.5q66 0 110.5 34.5t44.5 78.5t-42.5 68t-119.5 24h-55l-10 109l258 184h-315l43 160h553l-37 -135l-287 -199q95 -15 146 -64.5t51 -132.5
q0 -124 -97 -206t-245 -82zM10 0l717 752l635 682h184l-717 -752l-634 -682h-185z" />
    <glyph glyph-name="twothirds" unicode="&#x2154;" horiz-adv-x="1843" 
d="M63 635l41 153l410 287q55 38 79.5 68.5t24.5 64.5q0 36 -27.5 58t-72.5 22q-94 0 -201 -102l-108 119q136 149 315 149q129 0 205 -63.5t76 -165.5q0 -76 -41.5 -137t-163.5 -140l-248 -157h353l-41 -156h-601zM1288 -20q-202 0 -307 129l115 120q48 -45 91 -66.5
t103 -21.5q66 0 111 34.5t45 78.5t-42.5 68t-119.5 24h-55l-10 109l258 184h-316l43 160h553l-37 -135l-286 -199q196 -32 196 -197q0 -124 -97 -206t-245 -82zM154 0l716 752l635 682h185l-717 -752l-635 -682h-184z" />
    <glyph glyph-name="onefifth" unicode="&#x2155;" horiz-adv-x="1689" 
d="M272 635l164 612l-166 -57l-16 153l278 101h132l-215 -809h-177zM1135 -20q-93 0 -183.5 38.5t-140.5 98.5l119 119q102 -91 207 -91q73 0 120.5 34t47.5 87q0 42 -38.5 71.5t-105.5 29.5q-57 0 -117 -29l-102 76l133 385h500l-41 -162h-348l-51 -143q41 12 102 12
q118 0 189 -62.5t71 -167.5q0 -123 -100 -209.5t-262 -86.5zM20 0l717 752l635 682h184l-716 -752l-635 -682h-185z" />
    <glyph glyph-name="twofifths" unicode="&#x2156;" horiz-adv-x="1843" 
d="M63 635l41 153l410 287q55 38 79.5 68.5t24.5 64.5q0 36 -27.5 58t-72.5 22q-94 0 -201 -102l-108 119q136 149 315 149q129 0 205 -63.5t76 -165.5q0 -76 -41.5 -137t-163.5 -140l-248 -157h353l-41 -156h-601zM1288 -20q-93 0 -183 38.5t-140 98.5l118 119
q102 -91 207 -91q73 0 120.5 34t47.5 87q0 42 -38 71.5t-105 29.5q-57 0 -117 -29l-102 76l133 385h500l-41 -162h-349l-51 -143q40 12 103 12q118 0 189 -62.5t71 -167.5q0 -123 -100.5 -209.5t-262.5 -86.5zM174 0l717 752l635 682h184l-717 -752l-635 -682h-184z" />
    <glyph glyph-name="threefifths" unicode="&#x2157;" horiz-adv-x="1843" 
d="M391 614q-202 0 -307 129l115 121q48 -45 91 -66.5t103 -21.5q66 0 111 34.5t45 78.5t-42.5 68t-119.5 24h-55l-10 109l258 184h-316l43 160h553l-37 -136l-286 -198q196 -32 196 -197q0 -125 -97 -207t-245 -82zM1288 -20q-93 0 -183 38.5t-140 98.5l118 119
q102 -91 207 -91q73 0 120.5 34t47.5 87q0 42 -38 71.5t-105 29.5q-57 0 -117 -29l-102 76l133 385h500l-41 -162h-349l-51 -143q40 12 103 12q118 0 189 -62.5t71 -167.5q0 -123 -100.5 -209.5t-262.5 -86.5zM143 0l717 752l635 682h184l-716 -752l-635 -682h-185z" />
    <glyph glyph-name="fourfifths" unicode="&#x2158;" horiz-adv-x="1843" 
d="M436 631l45 168h-385l31 170l506 473h186l-135 -502h107l-39 -141h-107l-45 -168h-164zM1288 -20q-93 0 -183 38.5t-140 98.5l118 119q102 -91 207 -91q73 0 120.5 34t47.5 87q0 42 -38 71.5t-105 29.5q-57 0 -117 -29l-102 76l133 385h500l-41 -162h-349l-51 -143
q40 12 103 12q118 0 189 -62.5t71 -167.5q0 -123 -100.5 -209.5t-262.5 -86.5zM174 0l717 752l635 682h184l-717 -752l-635 -682h-184zM283 938h237l80 299z" />
    <glyph glyph-name="onesixth" unicode="&#x2159;" horiz-adv-x="1689" 
d="M1157 -20q-141 0 -213 80.5t-72 213.5q0 105 46.5 220.5t128.5 197.5q127 127 301 127q135 0 221 -82l-94 -131q-58 51 -144 51q-104 0 -178 -77q-56 -59 -78 -127q78 67 197 67q91 0 155 -58t64 -161q0 -128 -94 -224.5t-240 -96.5zM31 0l717 752l634 682h185l-717 -752
l-635 -682h-184zM272 635l164 612l-166 -57l-16 153l278 101h132l-215 -809h-177zM1163 129q66 0 110 43t44 102q0 50 -30.5 79.5t-84.5 29.5q-70 0 -115 -45q-40 -40 -40 -98q0 -52 31.5 -81.5t84.5 -29.5z" />
    <glyph glyph-name="fivesixths" unicode="&#x215a;" horiz-adv-x="1843" 
d="M1311 -20q-141 0 -213 80.5t-72 213.5q0 106 46 221t128 197q127 127 301 127q135 0 221 -82l-94 -131q-58 51 -143 51q-104 0 -178 -77q-56 -59 -78 -127q78 67 196 67q91 0 155.5 -58t64.5 -161q0 -128 -94 -224.5t-240 -96.5zM393 614q-93 0 -183 39t-140 99l118 118
q101 -90 207 -90q73 0 120.5 34t47.5 87q0 42 -38 71t-105 29q-59 0 -117 -28l-102 76l133 385h500l-41 -162h-349l-51 -144q44 13 103 13q118 0 189 -62.5t71 -167.5q0 -123 -100.5 -210t-262.5 -87zM154 0l716 752l635 682h185l-717 -752l-635 -682h-184zM1317 129
q66 0 109.5 43t43.5 102q0 50 -30.5 79.5t-83.5 29.5q-70 0 -115 -45q-41 -41 -41 -98q0 -52 32 -81.5t85 -29.5z" />
    <glyph glyph-name="oneeighth" unicode="&#x215b;" horiz-adv-x="1689" 
d="M272 635l164 612l-166 -57l-16 153l278 101h132l-215 -809h-177zM1163 -20q-128 0 -217.5 63t-89.5 166q0 88 56 145t149 78q-103 54 -103 160q0 90 82 158.5t226 68.5q128 0 209 -62.5t81 -158.5q0 -77 -47 -130.5t-133 -70.5q119 -61 119 -172q0 -101 -90 -173
t-242 -72zM1171 119q66 0 111 30t45 80q1 47 -40 77t-107 30t-110.5 -31t-45.5 -80q0 -46 41 -76t106 -30zM1255 475q59 0 98.5 29t39.5 76q0 41 -34 69.5t-97 28.5q-61 0 -101.5 -29t-40.5 -74q-2 -42 34.5 -71t100.5 -29zM20 0l717 752l635 682h184l-716 -752l-635 -682
h-185z" />
    <glyph glyph-name="threeeighths" unicode="&#x215c;" horiz-adv-x="1843" 
d="M391 614q-202 0 -307 129l115 121q48 -45 91 -66.5t103 -21.5q66 0 111 34.5t45 78.5t-42.5 68t-119.5 24h-55l-10 109l258 184h-316l43 160h553l-37 -136l-286 -198q196 -32 196 -197q0 -125 -97 -207t-245 -82zM1317 -20q-128 0 -217.5 63t-89.5 166q0 88 55.5 145
t148.5 78q-102 54 -102 160q0 90 81.5 158.5t225.5 68.5q128 0 209.5 -62.5t81.5 -158.5q0 -77 -47 -130.5t-133 -70.5q119 -61 119 -172q0 -101 -90 -173t-242 -72zM1325 119q66 0 111 30t45 80q1 47 -40.5 77t-107.5 30t-110 -31t-45 -80q0 -46 41 -76t106 -30zM1409 475
q59 0 98 29t39 76q0 41 -34 69.5t-97 28.5q-61 0 -101 -29t-40 -74q-2 -42 34.5 -71t100.5 -29zM154 0l716 752l635 682h185l-717 -752l-635 -682h-184z" />
    <glyph glyph-name="fiveeighths" unicode="&#x215d;" horiz-adv-x="1843" 
d="M393 614q-93 0 -183 39t-140 99l118 118q101 -90 207 -90q73 0 120.5 34t47.5 87q0 42 -38 71t-105 29q-59 0 -117 -28l-102 76l133 385h500l-41 -162h-349l-51 -144q44 13 103 13q118 0 189 -62.5t71 -167.5q0 -123 -100.5 -210t-262.5 -87zM1317 -20q-128 0 -217.5 63
t-89.5 166q0 88 55.5 145t148.5 78q-102 54 -102 160q0 90 81.5 158.5t225.5 68.5q128 0 209.5 -62.5t81.5 -158.5q0 -77 -47 -130.5t-133 -70.5q119 -61 119 -172q0 -101 -90 -173t-242 -72zM1325 119q66 0 111 30t45 80q1 47 -40.5 77t-107.5 30t-110 -31t-45 -80
q0 -46 41 -76t106 -30zM1409 475q59 0 98 29t39 76q0 41 -34 69.5t-97 28.5q-61 0 -101 -29t-40 -74q-2 -42 34.5 -71t100.5 -29zM154 0l716 752l635 682h185l-717 -752l-635 -682h-184z" />
    <glyph glyph-name="seveneighths" unicode="&#x215e;" horiz-adv-x="1843" 
d="M150 631l493 637h-362l45 166h561l-39 -142l-504 -661h-194zM1317 -20q-128 0 -217.5 63t-89.5 166q0 88 55.5 145t148.5 78q-102 54 -102 160q0 90 81.5 158.5t225.5 68.5q128 0 209.5 -62.5t81.5 -158.5q0 -77 -47 -130.5t-133 -70.5q119 -61 119 -172q0 -101 -90 -173
t-242 -72zM1325 119q66 0 111 30t45 80q1 47 -40.5 77t-107.5 30t-110 -31t-45 -80q0 -46 41 -76t106 -30zM1409 475q59 0 98 29t39 76q0 41 -34 69.5t-97 28.5q-61 0 -101 -29t-40 -74q-2 -42 34.5 -71t100.5 -29zM92 0l717 752l635 682h184l-717 -752l-635 -682h-184z" />
    <glyph glyph-name="Delta" unicode="&#x2206;" horiz-adv-x="1603" 
d="M1206 1444l221 -1217l-86 -227h-1370l37 227l871 1217h327zM958 1081l-550 -802h677z" />
    <glyph glyph-name="minus" unicode="&#x2212;" horiz-adv-x="1310" 
d="M147 578l76 286h1032l-75 -286h-1033z" />
    <glyph glyph-name="Q.alt" horiz-adv-x="1703" 
d="M999 1458q145 0 268.5 -49t208 -133.5t132 -201.5t47.5 -251q0 -161 -64 -316t-180 -274l115 -151l-260 -172l-95 149q-176 -84 -378 -84q-145 0 -268.5 49t-208 133.5t-132 201.5t-47.5 251q0 164 66 321t186 277q118 118 273 184t337 66zM829 266q100 0 181 37
l-185 250l260 174l146 -233q96 148 96 309q0 164 -95.5 264t-268.5 100q-191 0 -332 -141q-77 -77 -121.5 -184t-44.5 -211q0 -164 95.5 -264.5t268.5 -100.5z" />
    <glyph glyph-name="a.alt" horiz-adv-x="1384" 
d="M510 -20q-185 0 -303.5 126.5t-118.5 344.5q0 146 52.5 271.5t144.5 217.5q85 85 191 131.5t218 46.5q123 0 204.5 -46t139.5 -134l43 160h312l-295 -1098h-312l31 119q-75 -70 -147 -104.5t-160 -34.5zM639 242q119 0 213 94q119 119 119 287q0 104 -66.5 168.5
t-169.5 64.5q-117 0 -209 -92q-116 -116 -116 -293q0 -107 62 -168t167 -61z" />
    <glyph glyph-name="uni039E.alt" horiz-adv-x="1507" 
d="M1421 858l-75 -272h-435l-84 -307h498l-74 -279h-1286l74 279h487l84 307h-428l76 272h424l80 297h-477l75 279h1266l-76 -279h-487l-80 -297h438z" />
    <glyph glyph-name="uni0424.bgr" horiz-adv-x="2041" 
d="M655 -205l58 219q-263 47 -419.5 215t-156.5 424q0 138 56 269.5t149 224.5q139 139 334.5 216t419.5 77l53 198h315l-59 -221q264 -47 420.5 -214t156.5 -423q0 -138 -55.5 -269t-148.5 -224q-139 -139 -334 -215.5t-420 -77.5l-53 -199h-316zM461 651
q0 -142 89.5 -239.5t250.5 -120.5l229 862q-131 -4 -246 -50.5t-194 -125.5q-59 -59 -94 -143t-35 -183zM1659 782q0 140 -89 237.5t-249 121.5l-231 -860q132 4 246 50t194 126q59 59 94 143t35 182z" />
    <glyph glyph-name="uni0432.bgr" horiz-adv-x="1347" 
d="M651 -25q-245 0 -393.5 127t-148.5 344q0 87 28 197l90 336q36 138 81 225t112 154q151 151 424 151q221 0 353 -113.5t132 -287.5q0 -150 -89.5 -249.5t-266.5 -141.5q237 -97 237 -320q0 -190 -153 -306t-406 -116zM666 238q112 0 175.5 58t63.5 142q0 89 -82.5 140
t-261.5 51h-119l-18 -70q-12 -52 -12 -94q0 -108 68 -167.5t186 -59.5zM530 956l-28 -108h178q197 0 285 88q57 57 57 147q0 73 -50 121.5t-143 48.5q-113 0 -186 -73q-71 -71 -113 -224z" />
    <glyph glyph-name="uni0433.bgr" horiz-adv-x="1071" 
d="M313 293q0 -72 144 -72q167 0 383 96l82 -225q-243 -110 -486 -110q-190 0 -298.5 78t-108.5 229q0 77 23.5 134t77 101t126 76t182.5 64q32 9 69 19.5t59 17t48 14t40 12.5t30 12t24 13t15 14.5t9.5 17.5t2.5 21q0 69 -131 69q-146 0 -325 -79l-76 227q214 92 411 92
q207 0 307.5 -87t100.5 -226q0 -49 -11.5 -90t-29 -72t-49.5 -58.5t-63 -46t-79.5 -38t-88.5 -32.5t-101 -30q-188 -53 -223 -68q-57 -25 -63 -61q-1 -6 -1 -12z" />
    <glyph glyph-name="uni0434.bgr" horiz-adv-x="1374" 
d="M512 -332q-166 0 -319 40.5t-261 113.5l164 213q87 -57 190.5 -89t205.5 -32q149 0 237 88q60 60 100 197l11 37q-88 -78 -166.5 -112t-177.5 -34q-108 0 -199.5 42.5t-150 131.5t-58.5 209q0 137 52 257.5t143 211.5q84 84 189.5 130t215.5 46q68 0 123 -15t94 -43
t66.5 -59.5t50.5 -72.5l45 170h311l-235 -883q-43 -162 -84 -244.5t-109 -150.5q-152 -152 -438 -152zM618 338q132 0 228 96t96 223q0 93 -59 147t-158 54q-123 0 -215 -92q-100 -100 -100 -234q0 -94 56.5 -144t151.5 -50z" />
    <glyph glyph-name="uni0436.bgr" horiz-adv-x="1822" 
d="M1321 1495l-221 -815h69l406 418h379l-576 -566l303 -532h-331l-228 428h-90l-110 -428h-312l119 428h-80l-424 -428h-379l607 582l-295 516h331l226 -418h84l211 815h311z" />
    <glyph glyph-name="uni0438.bgr" horiz-adv-x="1271" 
d="M408 -20q-149 0 -236.5 85.5t-87.5 233.5q0 65 37 209l158 590h311l-162 -602q-14 -54 -14 -99q0 -66 39.5 -100.5t111.5 -34.5q89 0 150 58.5t88 160.5l166 617h311l-295 -1098h-311l31 115q-147 -135 -297 -135z" />
    <glyph glyph-name="uni0439.bgr" horiz-adv-x="1271" 
d="M408 -20q-149 0 -236.5 85.5t-87.5 233.5q0 65 37 209l158 590h311l-162 -602q-14 -54 -14 -99q0 -66 39.5 -100.5t111.5 -34.5q89 0 150 58.5t88 160.5l166 617h311l-295 -1098h-311l31 115q-147 -135 -297 -135zM846 1214q-89 0 -156.5 26.5t-106.5 72.5t-58 103
t-17 124h213q3 -53 39.5 -88t99.5 -35q76 0 123 31.5t86 91.5h215q-48 -145 -162.5 -235.5t-275.5 -90.5z" />
    <glyph glyph-name="uni043A.bgr" horiz-adv-x="1236" 
d="M1083 0h-335l-236 428h-98l-111 -428h-311l401 1495h312l-224 -815h90l398 418h403l-590 -580z" />
    <glyph glyph-name="uni043F.bgr" horiz-adv-x="1271" 
d="M-8 0l295 1098h311l-31 -115q147 135 297 135q149 0 236.5 -85.5t87.5 -233.5q0 -65 -37 -209l-158 -590h-311l162 602q14 54 14 98q0 66 -39.5 101t-111.5 35q-89 0 -150 -59t-88 -161l-166 -616h-311z" />
    <glyph glyph-name="uni0442.bgr" horiz-adv-x="1941" 
d="M-8 0l295 1098h311l-31 -115q71 64 138 99.5t151 35.5q110 0 184 -52.5t107 -145.5q162 198 393 198q148 0 233 -85t85 -234q0 -65 -37 -209l-158 -590h-311l161 602q15 58 15 98q0 66 -37 101t-109 35q-89 0 -147 -58.5t-86 -161.5l-166 -616h-311l162 602q14 54 14 98
q0 66 -37 101t-109 35q-89 0 -147 -58.5t-86 -161.5l-166 -616h-311z" />
    <glyph glyph-name="uni0446.bgr" horiz-adv-x="1341" 
d="M408 -20q-149 0 -236.5 85.5t-87.5 233.5q0 65 37 209l158 590h311l-162 -602q-14 -54 -14 -99q0 -66 39.5 -100.5t111.5 -34.5q89 0 150 58.5t88 160.5l166 617h311l-219 -817h145l-145 -543h-281l72 262h-178l31 115q-147 -135 -297 -135z" />
    <glyph glyph-name="uni0448.bgr" horiz-adv-x="1941" 
d="M1950 1098l-295 -1098h-312l31 115q-71 -64 -138 -99.5t-151 -35.5q-110 0 -183.5 52.5t-106.5 145.5q-162 -198 -394 -198q-148 0 -232.5 85t-84.5 234q0 65 37 209l158 590h311l-162 -602q-14 -54 -14 -99q0 -135 145 -135q89 0 148 58t86 161l165 617h312l-162 -602
q-14 -54 -14 -99q0 -135 145 -135q89 0 148 58t86 161l165 617h312z" />
    <glyph glyph-name="uni0449.bgr" horiz-adv-x="2011" 
d="M1950 1098l-219 -817h145l-145 -543h-281l72 262h-179l31 115q-71 -64 -138 -99.5t-151 -35.5q-110 0 -183.5 52.5t-106.5 145.5q-162 -198 -394 -198q-148 0 -232.5 85t-84.5 234q0 65 37 209l158 590h311l-162 -602q-14 -54 -14 -99q0 -135 145 -135q89 0 148 58
t86 161l165 617h312l-162 -602q-14 -54 -14 -99q0 -135 145 -135q89 0 148 58t86 161l165 617h312z" />
    <glyph glyph-name="uni044E.bgr" horiz-adv-x="1828" 
d="M1120 -25q-215 0 -351.5 120t-160.5 315h-194l-111 -410h-311l401 1495h312l-213 -799h151q50 136 154 240q86 86 196.5 134t233.5 48q235 0 375.5 -142t140.5 -366q0 -126 -51 -243.5t-142 -208.5q-86 -86 -196.5 -134.5t-233.5 -48.5zM1130 242q107 0 195 88
q52 52 82.5 125t30.5 147q0 118 -59.5 184t-161.5 66q-107 0 -195 -88q-52 -52 -82.5 -125t-30.5 -147q0 -118 59.5 -184t161.5 -66z" />
    <glyph glyph-name="aacute.alt" horiz-adv-x="1384" 
d="M510 -20q-185 0 -303.5 126.5t-118.5 344.5q0 146 52.5 271.5t144.5 217.5q85 85 191 131.5t218 46.5q123 0 204.5 -46t139.5 -134l43 160h312l-295 -1098h-312l31 119q-75 -70 -147 -104.5t-160 -34.5zM639 242q119 0 213 94q119 119 119 287q0 104 -66.5 168.5
t-169.5 64.5q-117 0 -209 -92q-116 -116 -116 -293q0 -107 62 -168t167 -61zM748 1219l329 362l262 -117l-329 -245h-262z" />
    <glyph glyph-name="abreve.alt" horiz-adv-x="1384" 
d="M510 -20q-185 0 -303.5 126.5t-118.5 344.5q0 146 52.5 271.5t144.5 217.5q85 85 191 131.5t218 46.5q123 0 204.5 -46t139.5 -134l43 160h312l-295 -1098h-312l31 119q-75 -70 -147 -104.5t-160 -34.5zM639 242q119 0 213 94q119 119 119 287q0 104 -66.5 168.5
t-169.5 64.5q-117 0 -209 -92q-116 -116 -116 -293q0 -107 62 -168t167 -61zM901 1214q-89 0 -156.5 26.5t-106.5 72.5t-58 103t-17 124h213q3 -53 39.5 -88t99.5 -35q76 0 123 31.5t86 91.5h215q-48 -145 -162.5 -235.5t-275.5 -90.5z" />
    </font>
</defs>
</svg>
