<?xml version="1.0" standalone="no"?>
<!DOCTYPE svg PUBLIC "-//W3C//DTD SVG 1.1//EN" "http://www.w3.org/Graphics/SVG/1.1/DTD/svg11.dtd">
<svg xmlns="http://www.w3.org/2000/svg">
<metadata>Copyright (C) 2022 by original authors @ fontello.com</metadata>
<defs>
<font id="iconfont" horiz-adv-x="1000" >
<font-face font-family="iconfont" font-weight="400" font-stretch="normal" units-per-em="1000" ascent="850" descent="-150" />
<missing-glyph horiz-adv-x="1000" />
<glyph glyph-name="abbastanza-affollato" unicode="&#xe800;" d="M333 350c92 0 167 75 167 167 0 92-75 166-167 166-92 0-166-74-166-166 0-92 74-167 166-167z m0-42c-111 0-333-55-333-166v-125h667v125c0 111-222 166-334 166z m188 373c39-44 62-101 62-164 0-63-23-121-62-165 82 11 146 80 146 165 0 85-64 154-146 164z m168-407c37-35 61-78 61-132v-125h83v125c0 60-66 104-144 132z" horiz-adv-x="1000" />

<glyph glyph-name="accessibilità" unicode="&#xe801;" d="M658 558c46 0 84 38 84 84 0 46-38 83-84 83-45 0-83-37-83-83 0-46 38-84 83-84z m-137-475c-54-75-163-87-233-33-75 54-88 163-34 233 29 38 71 63 117 67 25 4 42 25 37 46-4 25-25 42-45 37-138-8-246-125-238-262 8-138 125-246 263-238 79 0 154 38 200 100 12 17 8 46-9 59-16 12-41 8-58-9z m283-66h-41v208c0 25-17 42-42 42h-188l71 196v4 8c0 4 0 4 0 8 0 5 0 5 0 9 0 4-4 4-4 8 0 4-4 4-4 4 0 4-4 4-4 4 0 0 0 5-4 5l-188 104h-8c-4 0-4 0-9 4h-16c-4 0-4 0-9-4h-4l-112-63c-17-12-25-37-13-58 4-13 21-21 34-21 8 0 16 0 20 4l92 54 133-79-79-216c0-5 0-5 0-9 0-4 0-4 0-8 0-4 0-13 4-17l5-4c0-4 4-4 4-8l4-4c4 0 4-5 8-5 4 0 9-4 13-4h208v-208c0-25 17-42 42-42h83c25 0 42 17 42 42 0 25-13 46-38 46z" horiz-adv-x="1000" />

<glyph glyph-name="acquisto" unicode="&#xe802;" d="M354 58c-12 0-24-3-35-10-10-7-18-17-23-28-4-12-5-24-3-36 2-13 8-24 17-32 9-9 20-15 32-18 12-2 25-1 36 4 12 5 21 13 28 23 7 10 11 22 11 35 0 16-7 32-19 44-11 12-27 18-44 18z m438 125h-500c-11 0-22 5-30 13-8 7-12 18-12 29 0 11 4 22 12 30 8 7 19 12 30 12h354c27 0 53 9 75 25 21 16 37 39 45 65l66 232c2 6 2 12 1 19-2 6-4 12-8 17-4 5-9 9-15 12-5 3-12 5-18 5h-511c-9 24-25 45-46 60-21 15-46 23-72 23h-38c-11 0-22-4-29-12-8-8-13-19-13-30 0-11 5-21 13-29 7-8 18-12 29-12h38c9 0 18-3 25-9 8-5 13-13 16-21l6-23 0 0 68-240c-31-3-61-19-81-43-21-24-32-56-30-88 2-32 16-62 39-84 23-22 54-34 86-34h500c11 0 21 4 29 12 8 8 12 19 12 30 0 11-4 21-12 29-8 8-18 12-29 12z m-56 375l-50-178c-3-8-8-16-15-22-8-5-16-8-25-8h-281l-11 37-49 171h431z m-48-500c-13 0-25-3-35-10-10-7-18-17-23-28-5-12-6-24-4-36 3-13 9-24 17-32 9-9 20-15 32-18 12-2 25-1 36 4 12 5 22 13 29 23 6 10 10 22 10 35 0 16-7 32-18 44-12 12-28 18-44 18z" horiz-adv-x="1000" />

<glyph glyph-name="aggiungi" unicode="&#xe803;" d="M500 767c-82 0-163-25-231-71-69-45-122-110-154-186-31-77-40-160-24-241 16-81 56-155 114-214 59-58 133-98 214-114 81-16 164-8 240 24 77 32 142 85 187 154 46 68 71 149 71 231 0 55-11 109-32 160-21 50-52 96-90 135-39 38-85 69-136 90-50 21-104 32-159 32z m0-750c-66 0-130 19-185 56-55 37-98 89-123 149-25 61-32 128-19 193 13 65 45 124 91 171 47 46 106 78 171 91 65 13 132 6 193-19 61-25 113-68 149-123 37-55 56-119 56-185 0-88-35-173-97-236-63-62-148-97-236-97z m167 375h-125v125c0 11-5 21-12 29-8 8-19 12-30 12-11 0-22-4-29-12-8-8-13-18-13-29v-125h-125c-11 0-21-5-29-12-8-8-12-19-12-30 0-11 4-22 12-29 8-8 18-13 29-13h125v-125c0-11 5-21 13-29 7-8 18-12 29-12 11 0 22 4 30 12 7 8 12 18 12 29v125h125c11 0 21 5 29 13 8 7 12 18 12 29 0 11-4 22-12 30-8 7-18 12-29 12z" horiz-adv-x="1000" />

<glyph glyph-name="alert" unicode="&#xe804;" d="M500 183c-8 0-16-2-23-7-7-4-12-11-15-18-4-8-4-16-3-24 2-9 6-16 12-22 5-6 13-10 21-11 8-2 16-1 24 2 8 3 14 9 19 16 4 6 7 14 7 23 0 11-5 21-12 29-8 8-19 12-30 12z m445-61l-336 583c-11 20-26 36-46 47-19 12-41 18-63 18-22 0-44-6-63-18-19-11-35-27-46-47l-333-583c-12-19-18-40-18-62 0-22 5-44 16-63 11-19 27-35 46-46 19-12 40-18 62-18h672c22 0 44 6 63 17 19 11 35 27 46 46 12 19 17 41 17 63 0 22-6 44-17 63z m-72-83c-4-7-9-12-16-16-6-4-14-6-21-5h-672c-7-1-15 1-21 5-6 4-12 9-15 16-4 6-6 13-6 21 0 7 2 14 6 20l333 584c3 7 9 12 15 16 7 4 14 6 22 6 8 0 15-2 22-6 6-4 12-9 15-16l335-584c5-6 7-13 7-21 1-7-1-14-4-21v1z m-373 478c-11 0-22-5-29-12-8-8-13-19-13-30v-167c0-11 5-21 13-29 7-8 18-12 29-12 11 0 22 4 30 12 7 8 12 18 12 29v167c0 11-5 22-12 30-8 7-19 12-30 12z" horiz-adv-x="1000" />

<glyph glyph-name="altri-servizi" unicode="&#xe805;" d="M125 454c0-34 28-62 63-62h208c34 0 62 28 62 62v209c0 34-28 62-62 62h-208c-35 0-63-28-63-62v-209z m83 188h167v-167h-167v167z m334-188c0-34 28-62 62-62h209c34 0 62 28 62 62v209c0 34-28 62-62 62h-209c-34 0-62-28-62-62v-209z m83 188h167v-167h-167v167z m-83-604c0-35 28-63 62-63h209c34 0 62 28 62 63v208c0 34-28 62-62 62h-209c-34 0-62-28-62-62v-208z m83 187h167v-167h-167v167z m-500-187c0-35 28-63 63-63h208c34 0 62 28 62 63v208c0 34-28 62-62 62h-208c-35 0-63-28-63-62v-208z m83 187h167v-167h-167v167z" horiz-adv-x="1000" />

<glyph glyph-name="assistenza-clienti" unicode="&#xe806;" d="M875 342c0 229-179 383-375 383-196 0-375-154-375-387-25-13-42-42-42-71v-84c0-45 38-83 84-83h41v254c0 163 130 292 292 292 163 0 292-129 292-292v-296h-334v-83h334c46 0 83 38 83 83v50c25 13 42 38 42 67v96c0 33-17 58-42 71z m-500-75c23 0 42 18 42 41 0 23-19 42-42 42-23 0-42-19-42-42 0-23 19-41 42-41z m250 0c23 0 42 18 42 41 0 23-19 42-42 42-23 0-42-19-42-42 0-23 19-41 42-41z m125 125c-21 116-125 208-246 208-125 0-262-104-250-267 104 42 179 134 204 246 50-112 163-187 292-187z" horiz-adv-x="1000" />

<glyph glyph-name="attivo" unicode="&#xe807;" d="M500 308c-11 0-22-4-29-12-8-8-13-18-13-29v-125c0-11 5-22 13-30 7-8 18-12 29-12 11 0 22 4 30 12 7 8 12 19 12 30v125c0 11-5 21-12 29-8 8-19 12-30 12z m208 167h-333v83c0 25 7 49 21 70 14 21 33 37 56 46 23 10 48 12 72 7 25-4 47-16 64-34 16-16 27-36 33-57 1-6 4-11 7-15 3-4 7-8 12-11 5-3 10-5 15-5 6-1 11-1 17 1 5 1 10 3 14 7 5 3 8 7 11 12 3 5 5 10 6 15 0 6 0 11-1 16-10 37-29 69-55 96-29 29-66 49-107 57-40 8-82 4-120-12-38-16-70-43-93-77-23-34-35-74-35-116v-83c-33 0-65-13-89-37-23-23-36-55-36-88v-292c0-33 13-65 36-88 24-24 56-37 89-37h416c34 0 65 13 89 37 23 23 36 55 36 88v292c0 33-13 65-36 88-24 24-55 37-89 37z m42-417c0-11-4-21-12-29-8-8-19-12-30-12h-416c-11 0-22 4-30 12-8 8-12 18-12 29v292c0 11 4 22 12 30 8 7 19 12 30 12h416c11 0 22-5 30-12 8-8 12-19 12-30v-292z" horiz-adv-x="1000" />

<glyph glyph-name="youtube" unicode="&#xe808;" d="M500 683c0 0 0 0 0-38l0-38-3 0c-2 0-5 0-8 0-7 0-18 0-31 0-25-1-60-1-96-2-37-1-75-3-109-5-34-3-59-6-71-9-12-3-22-10-30-18-8-9-14-19-17-30-12-64-17-129-17-194l0 0c0-65 5-130 17-195 3-10 9-20 17-28 8-8 18-14 30-17 12-3 37-6 71-9 34-2 72-4 109-5 36-1 71-2 96-2 13 0 24 0 31 0 3 0 6 0 8 0h6c2 0 5 0 8 0 8 0 18 0 31 0 25 0 60 1 97 2 36 1 75 3 108 5 34 3 59 6 71 9 12 3 22 10 30 18 8 8 14 19 17 30 12 63 17 128 17 192l0 0c0 66-5 131-17 196-3 11-9 21-17 29-8 9-18 15-29 18-13 3-39 6-72 8-33 3-72 4-108 5-37 1-72 2-97 2-13 0-23 0-31 0l-8 0-3 0 0 38c0 38 0 38 0 38l3 0c2 0 5 0 9 0 7 0 18 0 31 0 25 0 60-1 98-2 37-1 76-2 111-4 34-3 65-6 86-11 0 0 0 0 1 0 24-7 47-20 64-38 18-19 30-41 37-66l-37-9 37 7c13-70 19-140 18-211 1-69-5-139-18-207 0-1 0-2 0-3-7-24-19-47-37-65-17-18-40-32-64-38l-1-1c-20-5-52-8-86-11-34-2-74-4-111-5-37-1-73-2-98-2-13 0-24 0-31 0-4 0-7 0-9 0l-3 0-3 0c-2 0-5 0-9 0-7 0-18 0-30 0-26 0-61 1-99 2-37 1-76 3-111 5-34 3-66 6-86 11l0 0c-24 7-46 20-64 37-18 18-30 39-37 63-1 1-1 3-1 4-13 69-19 140-18 210-1 70 5 140 18 209 0 1 0 2 0 3 7 24 19 47 37 65 18 18 40 31 64 38l1 1c20 5 52 8 86 11 35 2 74 4 111 5 38 1 73 2 99 2 12 0 23 0 30 0 4 0 7 0 9 0l3 0z m-105-176c12 7 26 7 38 0l220-125c12-6 19-19 19-33 0-14-7-26-19-33l-220-125c-12-7-26-7-38 0-12 7-19 20-19 33v250c0 14 7 26 19 33z m57-99v-118l104 59-104 59z" horiz-adv-x="1000" />

<glyph glyph-name="batteria-carica" unicode="&#xe809;" d="M279 225h-112v250h96c11 0 22 4 29 12 8 8 13 19 13 30 0 11-5 21-13 29-7 8-18 12-29 12h-96c-22 0-44-8-59-24-16-16-25-37-25-59v-250c0-22 9-43 25-59 15-16 37-24 59-24h112c11 0 21 4 29 12 8 8 12 18 12 29 0 11-4 22-12 30-8 8-18 12-29 12z m300 107c1 2 2 5 2 7 0 3 0 6 0 9 0 0 0 0 0 2 0 3 0 3 0 5 0 3-1 6-2 8-1 3-2 5-3 7-1 3-3 5-4 7l-7 6-4 3h-2l-8 3h-8-138l61 104c5 10 7 21 4 32-3 10-10 20-20 25-9 6-21 7-31 4-11-3-20-10-26-19l-96-167c0 0 0 0 0-3-1-2-2-4-2-7-1-3-1-6 0-8l-3 0c0 0 0-3 0-5 0-3 1-6 2-8 1-3 2-5 3-7 1-3 3-5 4-7l7-5c1-2 2-3 4-4h3 3c5-3 10-5 15-6h137l-61-104c-5-9-7-21-4-32 3-10 10-19 20-25 9-5 21-7 31-4 11 3 20 10 26 20l96 166c0 0 0 2 1 3z m296 101c-11 0-22-4-29-12-8-8-13-18-13-29v-84c0-11 5-21 13-29 7-8 18-12 29-12 11 0 22 4 30 12 7 8 12 18 12 29v84c0 11-5 21-12 29-8 8-19 12-30 12z m-167 125h-112c-11 0-21-4-29-12-8-8-12-18-12-29 0-11 4-22 12-30 8-8 18-12 29-12h112v-250h-96c-11 0-22-4-29-12-8-8-13-19-13-30 0-11 5-21 13-29 7-8 18-12 29-12h96c22 0 44 8 59 24 16 16 25 37 25 59v250c0 22-9 43-25 59-15 16-37 24-59 24z" horiz-adv-x="1000" />

<glyph glyph-name="batteria-scarica" unicode="&#xe80a;" d="M708 558h-541c-22 0-44-8-59-24-16-16-25-37-25-59v-250c0-22 9-43 25-59 15-16 37-24 59-24h541c22 0 44 8 59 24 16 16 25 37 25 59v250c0 22-9 43-25 59-15 16-37 24-59 24z m0-333h-541v250h541v-250z m167 208c-11 0-22-4-29-12-8-8-13-18-13-29v-84c0-11 5-21 13-29 7-8 18-12 29-12 11 0 22 4 30 12 7 8 12 18 12 29v84c0 11-5 21-12 29-8 8-19 12-30 12z" horiz-adv-x="1000" />

<glyph glyph-name="bici-elettrica" unicode="&#xe80b;" d="M792 558h-34l-71 195c-12 33-44 55-79 55h-108v-83h108l61-167h-200l-15 42h46v83h-208v-83h73l75-208h-27c-19 93-97 161-194 166-117 6-219-91-219-208 0-117 92-208 208-208 103 0 186 70 205 166h175c18-93 96-161 193-166 117-5 219 91 219 208 0 117-92 208-208 208z m-466-250c-17-48-62-83-118-83-70 0-125 55-125 125 0 70 55 125 125 125 56 0 101-35 118-83h-118v-84h118z m262 84h-59l-30 83h126c-18-24-32-52-37-83z m204-167c-70 0-125 55-125 125 0 39 17 72 43 95l40-110 79 28-41 112c1 0 2 0 4 0 70 0 125-55 125-125 0-70-55-125-125-125z m-334-208h-166l250-125v83h166l-250 125v-83z" horiz-adv-x="1000" />

<glyph glyph-name="biglietti" unicode="&#xe80c;" d="M375 433c-11 0-22-4-29-12-8-8-13-18-13-29v-84c0-11 5-21 13-29 7-8 18-12 29-12 11 0 22 4 30 12 7 8 12 18 12 29v84c0 11-5 21-12 29-8 8-19 12-30 12z m500-41c11 0 22 4 30 12 7 8 12 18 12 29v167c0 11-5 22-12 30-8 7-19 12-30 12h-750c-11 0-22-5-29-12-8-8-13-19-13-30v-167c0-11 5-21 13-29 7-8 18-12 29-12 11 0 22-5 30-12 7-8 12-19 12-30 0-11-5-22-12-29-8-8-19-13-30-13-11 0-22-4-29-12-8-8-13-18-13-29v-167c0-11 5-22 13-29 7-8 18-13 29-13h750c11 0 22 5 30 13 7 7 12 18 12 29v167c0 11-5 21-12 29-8 8-19 12-30 12-11 0-22 5-29 13-8 7-13 18-13 29 0 11 5 22 13 30 7 7 18 12 29 12z m-42 76c-24-9-45-25-59-46-15-21-23-46-23-72 0-26 8-51 23-72 14-21 35-37 59-45v-91h-416c0 11-5 21-12 29-8 8-19 12-30 12-11 0-22-4-29-12-8-8-13-18-13-29h-166v91c24 8 45 24 59 45 15 21 23 46 23 72 0 26-8 51-23 72-14 21-35 37-59 46v90h166c0-11 5-21 13-29 7-8 18-12 29-12 11 0 22 4 30 12 7 8 12 18 12 29h416v-90z" horiz-adv-x="1000" />

<glyph glyph-name="burger-menu" unicode="&#xe80d;" d="M166 683h669c22 0 40-18 40-41 0-23-18-42-40-42h-669c-23 0-41 19-41 42 0 23 18 41 41 41z m0-291h669c22 0 40-19 40-42 0-23-18-42-40-42h-669c-23 0-41 19-41 42 0 23 18 42 41 42z m0-292h669c22 0 40-19 40-42 0-23-18-41-40-41h-669c-23 0-41 18-41 41 0 23 18 42 41 42z" horiz-adv-x="1000" />

<glyph glyph-name="bus-multiple-results" unicode="&#xe80e;" d="M875 683v84h-83v-84h-84v-83h84v-83h83v83h83v83h-83z m-215 74c-47 8-102 10-160 10-167 0-333-21-333-167v-396c0-39 16-75 41-101v-86c0-23 19-42 42-42h42c23 0 41 19 41 42v41h334v-41c0-23 18-42 41-42h42c23 0 42 19 42 42v86c26 26 41 62 41 101v229c-29 0-57 7-83 18v-18h-500v125h392c-11 26-17 54-17 84h-357c25 21 85 41 232 41 53 0 95-2 128-6 5 29 16 57 32 80z m7-615c46 0 83 37 83 83v125h-500v-125c0-46 38-83 83-83h334z m-313 41c35 0 63 28 63 63 0 34-28 62-63 62-34 0-62-28-62-62 0-35 28-63 62-63z m292 0c34 0 62 28 62 63 0 34-28 62-62 62-35 0-63-28-63-62 0-35 28-63 63-63z" horiz-adv-x="1000" />

<glyph glyph-name="bus" unicode="&#xe80f;" d="M500 767c-184 0-333-21-333-167v-417c0-36 16-69 41-92v-74c0-23 19-42 42-42h42c23 0 41 19 41 42v41h334v-41c0-23 18-42 41-42h42c23 0 42 19 42 42v74c25 23 41 56 41 92v417c0 146-149 167-333 167z m236-125h-472c23 22 82 41 236 41 154 0 213-19 236-41z m14-83v-126h-500v126h500z m-14-406l-12-11h-448l-12 11c-5 5-14 15-14 30v167h500v-167c0-15-9-25-14-30z m-382 30c35 0 63 28 63 63 0 34-28 62-63 62-34 0-62-28-62-62 0-35 28-63 62-63z m292 0c34 0 62 28 62 63 0 34-28 62-62 62-35 0-63-28-63-62 0-35 28-63 63-63z" horiz-adv-x="1000" />

<glyph glyph-name="calendario" unicode="&#xe810;" d="M792 683h-42v42c0 23-19 42-42 42-23 0-41-19-41-42v-42h-334v42c0 23-18 42-41 42-23 0-42-19-42-42v-42h-42c-46 0-83-37-83-83l0-583c0-46 37-84 83-84h584c46 0 83 38 83 84v583c0 46-37 83-83 83z m0-666h-584v416h584v-416z m0 500h-584v83h584v-83z m-167-375c0 23 19 41 42 41 23 0 41-18 41-41 0-23-18-42-41-42-23 0-42 19-42 42z" horiz-adv-x="1000" />

<glyph glyph-name="cambi" unicode="&#xe811;" d="M905 463l-167 167c-4 4-9 7-14 9-5 2-10 3-16 3-11 0-21-5-29-12-8-8-12-19-12-30 0-11 4-22 12-30l96-95h-483c-11 0-22-4-30-12-8-8-12-19-12-30 0-11 4-21 12-29 8-8 19-12 30-12h583c8 0 16 2 23 7 7 4 12 11 15 19 4 7 4 15 3 24-2 8-6 15-11 21z m-197-155h-583c-8 0-16-2-23-7-7-4-12-11-15-18-3-8-4-16-3-24 2-9 6-16 11-22l167-167c4-3 9-7 14-9 5-2 10-3 16-3 5 0 11 1 16 3 5 2 9 6 13 9 4 4 7 9 9 14 3 5 4 11 4 16 0 6-1 11-4 16-2 5-5 10-9 14l-96 95h483c11 0 22 4 30 12 8 8 12 19 12 30 0 11-4 21-12 29-8 8-19 12-30 12z" horiz-adv-x="1000" />

<glyph glyph-name="cambia-direzione" unicode="&#xe812;" d="M571 404l96 96v-400c0-11 4-21 12-29 8-8 19-12 30-12 11 0 21 4 29 12 8 8 12 18 12 29v400l96-96c4-4 8-7 13-9 5-2 11-3 16-3 6 0 11 1 16 3 5 2 10 5 14 9 4 4 7 8 9 14 2 5 3 10 3 16 0 5-1 11-3 16-2 5-5 9-9 13l-167 167c-4 4-9 7-14 9-10 4-21 4-31 0-5-2-10-5-14-9l-167-167c-4-4-7-8-9-13-2-5-3-11-3-16 0-6 1-11 3-16 2-5 5-10 9-14 4-4 9-7 14-9 5-2 10-3 16-3 5 0 11 1 16 3 5 2 10 5 13 9z m-142-108l-95-96 0 400c0 11-5 22-13 30-7 7-18 12-29 12-11 0-22-5-30-12-7-8-12-19-12-30l0-400-95 96c-4 4-9 7-14 9-5 3-10 4-16 4-5 0-11-1-16-4-5-2-9-5-13-9-4-4-7-8-9-13-3-5-4-11-4-16 0-6 1-11 4-16 2-5 5-10 9-14l166-167c4-3 9-6 14-8 10-4 22-4 32 0 5 2 10 5 14 8l166 167c4 4 7 9 9 14 2 5 3 10 3 16 0 5-1 11-3 16-2 5-5 9-9 13-4 4-8 7-13 9-5 2-11 4-16 4-6 0-11-2-16-4-5-2-10-5-14-9z" horiz-adv-x="1000" />

<glyph glyph-name="cammina" unicode="&#xe813;" d="M556 558c39 0 71 30 71 66 0 36-32 66-71 66-39 0-70-30-70-66 0-36 31-66 70-66z m-130-112l-99-464h74l63 263 75-66 0-197h70l0 247-74 66 21 99c46-50 116-83 194-83v66c-67 0-123 33-152 79l-35 53c-20 29-59 41-93 28l-178-71 0-155h70l0 112 64 23z" horiz-adv-x="1000" />

<glyph glyph-name="cancella" unicode="&#xe814;" d="M500 767c-230 0-417-187-417-417 0-230 187-417 417-417 230 0 417 187 417 417 0 230-187 417-417 417z m179-596c-16-16-42-16-59 0l-120 120-120-120c-17-16-43-16-59 0-16 16-16 42 0 59l120 120-120 120c-16 17-16 43 0 59 16 16 42 16 59 0l120-120 120 120c17 16 43 16 59 0 16-16 16-42 0-59l-120-120 120-120c16-16 16-43 0-59z" horiz-adv-x="1000" />

<glyph glyph-name="cancellato" unicode="&#xe815;" d="M500 267c-10 0-20-3-29-9-8-6-15-14-19-23-4-10-5-20-3-31 2-10 7-19 14-26 8-7 17-12 27-14 10-2 20-1 30 3 9 3 18 10 23 19 6 8 9 18 9 29 0 13-5 27-15 36-10 10-23 16-37 16z m0 62c11 0 22 5 30 12 7 8 12 19 12 30v125c0 11-5 22-12 29-8 8-19 13-30 13-11 0-22-5-29-13-8-7-13-18-13-29v-125c0-11 5-22 13-30 7-7 18-12 29-12z m0 438c-82 0-163-25-231-71-69-45-122-110-154-186-31-77-40-160-24-241 16-81 56-155 114-214 59-58 133-98 214-114 81-16 164-8 240 24 77 32 142 85 187 154 46 68 71 149 71 231 0 111-44 216-122 295-79 78-184 122-295 122z m0-750c-66 0-130 19-185 56-55 37-98 89-123 149-25 61-32 128-19 193 13 65 45 124 91 171 47 46 106 78 171 91 65 13 132 6 193-19 61-25 113-68 149-123 37-55 56-119 56-185 0-88-35-173-97-236-63-62-148-97-236-97z" horiz-adv-x="1000" />

<glyph glyph-name="carta-rifiutata" unicode="&#xe816;" d="M296 729h550c46 0 83-37 83-83v-500c0-13-4-29-8-38l-75 75v213h-217l-166 167h383v83h-467l-83 83z m571-804l-138 138h-550c-46 0-83 37-83 83v500c0 12 4 29 8 37l-62 67 58 58 825-825-58-58z m-688 688v-50h50l-50 50z m467-467l-250 250h-217v-250h467z" horiz-adv-x="1000" />

<glyph glyph-name="carrozza" unicode="&#xe817;" d="M936 156c3-9 5-19 5-29 0-49-39-88-88-88-23 0-43 8-59 22-15-14-36-22-59-22-48 0-88 39-88 88 0 10 2 20 5 29h-304c3-9 5-19 5-29 0-49-40-88-88-88-23 0-43 8-59 22-16-14-36-22-59-22-49 0-88 39-88 88 0 10 2 20 5 29h-35c-39 0-39 59 0 59v338c0 8 4 16 9 21l59 59c5 6 13 9 21 9h764c8 0 16-3 21-9l59-59c6-5 9-13 9-21v-338c39 0 39-59 0-59h-35z m-848 385v-17h824v17l-42 42h-740l-42-42z m0-223v-103h824v103h-824z m162 147h-162v-88h162v88z m662 0h-162v-88h162v88z m-221 0h-162v-88h162v88z m-220 0h-162v-88h162v88z m-324-367c16 0 30 13 30 29 0 16-14 29-30 29-16 0-29-13-29-29 0-16 13-29 29-29z m118 0c16 0 29 13 29 29 0 16-13 29-29 29-16 0-30-13-30-29 0-16 14-29 30-29z m470 0c17 0 30 13 30 29 0 16-13 29-30 29-16 0-29-13-29-29 0-16 13-29 29-29z m118 0c16 0 29 13 29 29 0 16-13 29-29 29-16 0-29-13-29-29 0-16 13-29 29-29z" horiz-adv-x="1000" />

<glyph glyph-name="carta" unicode="&#xe818;" d="M833 683h-666c-47 0-83-37-83-83l-1-500c0-46 37-83 84-83h666c47 0 84 37 84 83v500c0 46-37 83-84 83z m0-583h-666v250h666v-250z m0 417h-666v83h666v-83z" horiz-adv-x="1000" />

<glyph glyph-name="casa" unicode="&#xe819;" d="M903 423l-375 333c-8 7-18 11-28 11-10 0-20-4-27-11l-375-333c-7-6-11-13-13-21-2-9-2-17 1-25 3-8 9-15 16-20 6-4 15-7 23-7h42v-375c0-11 4-22 12-30 8-7 18-12 29-12h584c11 0 21 5 29 12 8 8 12 19 12 30v375h42c8 0 17 3 24 7 6 5 12 12 15 20 3 8 3 16 1 25-2 8-6 15-12 21z m-361-406h-84v125c0 11 5 21 13 29 7 8 18 12 29 12 11 0 22-4 29-12 8-8 13-18 13-29v-125z m208 0h-125v125c0 33-13 65-37 88-23 24-55 37-88 37-33 0-65-13-88-37-24-23-37-55-37-88v-125h-125v333h500v-333z m-515 416l265 236 265-236h-530z" horiz-adv-x="1000" />

<glyph glyph-name="cellulare" unicode="&#xe81a;" d="M708 808h-416c-46 0-84-37-84-83v-750c0-46 38-83 84-83h416c46 0 84 37 84 83v750c0 46-38 83-84 83z m0-791h-416v666h416v-666z" horiz-adv-x="1000" />

<glyph glyph-name="check_cerchio" unicode="&#xe81b;" d="M500 767c-230 0-417-187-417-417 0-230 187-417 417-417 230 0 417 187 417 417 0 230-187 417-417 417z m0-750c-184 0-333 149-333 333 0 184 149 333 333 333 184 0 333-149 333-333 0-184-149-333-333-333z m162 488l-245-245-79 78c-16 16-42 16-58 0-17-16-17-43 0-59l108-108c16-16 42-16 58 0l275 275c16 16 16 42 0 59-16 16-43 16-59 0z" horiz-adv-x="1000" />

<glyph glyph-name="check" unicode="&#xe81c;" d="M375 175l-146 146c-16 16-42 16-58 0-16-16-16-42 0-58l174-175c17-16 43-16 59 0l442 441c16 16 16 42 0 59-16 16-42 16-58 0l-413-413z" horiz-adv-x="1000" />

<glyph glyph-name="chiudi" unicode="&#xe81d;" d="M763 612c-17 16-43 16-59 0l-204-203-204 204c-16 16-42 16-58 0-17-17-17-43 0-59l203-204-203-204c-17-16-17-42 0-58 16-17 42-17 58 0l204 203 204-203c16-17 42-17 59 0 16 16 16 42 0 58l-204 204 204 204c15 16 15 42 0 58z" horiz-adv-x="1000" />

<glyph glyph-name="delete" unicode="&#xe81e;" d="M417 100c11 0 21 4 29 12 8 8 12 19 12 30v250c0 11-4 21-12 29-8 8-18 12-29 12-11 0-22-4-30-12-8-8-12-18-12-29v-250c0-11 4-22 12-30 8-8 19-12 30-12z m416 500h-166v42c0 33-13 65-37 88-23 24-55 37-88 37h-84c-33 0-65-13-88-37-23-23-37-55-37-88v-42h-166c-11 0-22-4-30-12-8-8-12-19-12-30 0-11 4-21 12-29 8-8 19-12 30-12h41v-459c0-33 14-65 37-88 23-24 55-37 88-37h334c33 0 65 13 88 37 24 23 37 55 37 88v459h41c11 0 22 4 30 12 8 8 12 18 12 29 0 11-4 22-12 30-8 8-19 12-30 12z m-416 42c0 11 4 21 12 29 8 8 18 12 29 12h84c11 0 21-4 29-12 8-8 12-18 12-29v-42h-166v42z m291-584c0-11-4-21-12-29-8-8-18-12-29-12h-334c-11 0-21 4-29 12-8 8-12 18-12 29v459h416v-459z m-125 42c11 0 22 4 30 12 8 8 12 19 12 30v250c0 11-4 21-12 29-8 8-19 12-30 12-11 0-21-4-29-12-8-8-12-18-12-29v-250c0-11 4-22 12-30 8-8 18-12 29-12z" horiz-adv-x="1000" />

<glyph glyph-name="direzione" unicode="&#xe81f;" d="M747 366c-2 5-5 10-9 14l-208 208c-4 4-9 7-14 9-5 2-10 3-16 3-11 0-22-4-30-12-3-4-7-9-9-14-2-5-3-10-3-16 0-11 5-21 12-29l138-137h-316c-11 0-22-5-30-12-8-8-12-19-12-30 0-11 4-22 12-29 8-8 19-13 30-13h316l-138-137c-3-4-7-8-9-13-2-5-3-11-3-16 0-6 1-11 3-16 2-5 6-10 9-14 4-4 9-7 14-9 5-2 11-3 16-3 6 0 11 1 16 3 5 2 10 5 14 9l208 208c4 4 7 9 9 14 4 10 4 22 0 32z" horiz-adv-x="1000" />

<glyph glyph-name="download" unicode="&#xe820;" d="M792 308v-208c0-23-19-42-42-42h-500c-23 0-42 19-42 42v208c0 23-18 42-41 42-23 0-42-19-42-42v-250c0-45 38-83 83-83h584c46 0 83 38 83 83v250c0 23-19 42-42 42-23 0-41-19-41-42z m-250 14l78 78c16 17 43 17 59 0 16-16 16-42 0-58l-150-150c-16-16-42-16-59 0l-149 150c-16 16-16 42 0 58 16 17 42 17 59 0l78-78v361c0 23 19 42 42 42 23 0 42-19 42-42v-361z" horiz-adv-x="1000" />

<glyph glyph-name="experience" unicode="&#xe821;" d="M958 392v83c-250 83-458 292-458 292 0 0-208-209-458-292v-83c0-62 38-115 93-136-2-104-13-226-52-323h834c-39 97-50 219-52 323 55 21 93 74 93 136z m-458 262c55-48 145-119 255-179h-510c110 60 200 131 255 179z m42-262h125c0-35-28-63-63-63-34 0-62 28-62 63z m-146-63c-35 0-63 28-63 63h125c0-35-28-63-62-63z m-146 63c0-35-28-63-62-63-35 0-63 28-63 63h125z m-56-375c16 77 23 159 24 232 28 6 54 21 73 41 11-10 23-19 36-26-4-78-11-166-22-247h-111v0z m196 0c10 76 16 157 20 230 35 3 67 19 90 43 23-24 55-40 90-43 5-73 10-154 20-230h-220z m305 0c-12 81-18 169-22 247 13 7 25 15 35 26 20-20 45-35 74-41 1-74 7-155 23-233h-110v1z m118 312c-35 0-63 28-63 63h125c0-35-28-63-62-63z" horiz-adv-x="1000" />

<glyph glyph-name="facebook" unicode="&#xe822;" d="M333 558c0 140 111 250 250 250h125c23 0 42-18 42-41v-167c0-23-19-42-42-42h-125v-83h125c13 0 25-6 33-16 8-10 11-23 8-36l-42-166c-4-19-21-32-40-32h-84v-292c0-23-18-41-41-41h-167c-23 0-42 18-42 41v292h-83c-23 0-42 19-42 42v166c0 23 19 42 42 42h83v83z m250 167c-93 0-166-73-166-167v-125c0-23-19-41-42-41h-83v-84h83c23 0 42-18 42-41v-292h83v292c0 23 19 41 42 41h92l21 84h-113c-23 0-42 18-42 41v125c0 22 8 44 24 60 16 16 37 24 59 24h84v83h-84z" horiz-adv-x="1000" />

<glyph glyph-name="fattura" unicode="&#xe823;" d="M417 517h250c11 0 21 4 29 12 8 8 12 18 12 29 0 11-4 22-12 30-8 8-18 12-29 12h-250c-11 0-22-4-30-12-8-8-12-19-12-30 0-11 4-21 12-29 8-8 19-12 30-12z m-84-167h334c11 0 21 4 29 12 8 8 12 19 12 30 0 11-4 21-12 29-8 8-18 12-29 12h-334c-11 0-21-4-29-12-8-8-12-18-12-29 0-11 4-22 12-30 8-8 18-12 29-12z m0-167h334c11 0 21 5 29 13 8 7 12 18 12 29 0 11-4 22-12 30-8 7-18 12-29 12h-334c-11 0-21-5-29-12-8-8-12-19-12-30 0-11 4-22 12-29 8-8 18-13 29-13z m500 584h-666c-11 0-22-5-30-12-8-8-12-19-12-30v-750c0-8 2-15 6-22 4-7 10-12 17-15 7-4 15-5 22-5 8 1 16 4 22 9l86 64 86-64c7-6 16-9 25-9 9 0 18 3 25 9l86 64 86-64c8-6 16-9 25-9 9 0 18 3 25 9l86 64 86-64c7-5 14-8 22-8 7-1 15 0 22 4 7 3 13 9 17 15 4 7 6 14 6 22v750c0 11-4 22-12 30-8 7-19 12-30 12z m-41-709l-45 34c-7 5-16 8-25 8-9 0-18-3-25-8l-86-65-86 65c-7 5-16 8-25 8-9 0-18-3-25-8l-86-65-86 65c-7 5-16 8-25 8-9 0-18-3-25-8l-45-34v625h584v-625z" horiz-adv-x="1000" />

<glyph glyph-name="favoriti" unicode="&#xe824;" d="M950 447c-3 8-7 14-14 19-6 5-14 8-22 9l-237 35-106 215c-4 7-9 13-16 17-6 4-14 7-22 7-7 0-15-3-22-7-6-4-12-10-15-17l-106-215-237-35c-8-1-15-4-21-9-6-5-11-12-13-19-2-8-3-15-1-23 2-7 6-14 11-19l172-167-41-236c-2-8-1-16 2-24 3-7 8-13 14-18 7-5 14-7 22-8 7 0 15 1 22 5l213 111 213-111c6-4 12-5 19-5 9 0 17 2 25 8 6 4 11 11 14 18 3 7 4 15 2 23l-41 237 172 167c6 5 10 11 13 19 2 7 2 16 0 23z m-256-167c-5-4-9-10-11-17-2-6-2-13-1-20l30-174-157 83c-6 3-13 5-20 5-6 0-13-2-19-5l-157-83 30 174c1 7 1 14-1 20-2 7-6 13-11 17l-125 125 176 26c6 1 13 3 18 7 6 4 10 10 13 16l74 159 79-160c3-6 7-11 13-15 5-4 12-7 18-8l176-25-125-125z" horiz-adv-x="1042" />

<glyph glyph-name="filtro" unicode="&#xe825;" d="M250 725c-23 0-42-19-42-42l0-208 84 0 0 208c0 23-19 42-42 42z m500 0c-23 0-42-19-42-42l0-375 84 0 0 375c0 23-19 42-42 42z m-583-417l41 0 0-291c0-23 19-42 42-42 23 0 42 19 42 42l0 291 41 0c23 0 42 19 42 42 0 23-19 42-42 42l-166 0c-23 0-42-19-42-42 0-23 19-42 42-42z m416 250l-41 0 0 125c0 23-19 42-42 42-23 0-42-19-42-42l0-125-41 0c-23 0-42-18-42-41 0-23 19-42 42-42l166 0c23 0 42 19 42 42 0 23-19 41-42 41z m-83-583c23 0 42 19 42 42l0 375-84 0 0-375c0-23 19-42 42-42z m125 208c0-23 19-41 42-41l41 0 0-125c0-23 19-42 42-42 23 0 42 19 42 42l0 125 41 0c23 0 42 18 42 41 0 23-19 42-42 42l-166 0c-23 0-42-19-42-42z" horiz-adv-x="1000" />

<glyph glyph-name="freccia_destra" unicode="&#xe826;" d="M617 384l-202 202c-4 4-10 8-16 10-5 3-12 4-18 4-6 0-12-1-18-4-6-2-11-6-16-10-9-9-14-21-14-34 0-12 5-24 14-33l169-169-169-169c-9-9-14-21-14-34 0-12 5-24 14-33 5-5 10-8 16-10 6-3 12-4 18-4 6 0 13 1 18 4 6 2 12 5 16 10l202 202c5 4 8 10 11 16 2 5 3 12 3 18 0 6-1 12-3 18-3 6-6 11-11 16z" horiz-adv-x="1000" />

<glyph glyph-name="freccia_giù" unicode="&#xe827;" d="M736 503c-9 9-21 14-33 14-13 0-25-5-34-14l-170-168-168 168c-9 9-21 14-33 14-13 0-25-5-34-14-4-4-8-10-10-16-3-5-4-11-4-18 0-6 1-12 4-18 2-6 6-11 10-15l201-202c5-4 10-8 16-10 5-2 12-4 18-4 6 0 12 2 18 4 6 2 11 6 16 10l203 202c4 4 8 9 10 15 3 6 4 12 4 18 0 7-1 13-4 18-2 6-6 12-10 16z" horiz-adv-x="1000" />

<glyph glyph-name="freccia_sinistra" unicode="&#xe828;" d="M448 351l168 168c9 9 14 21 14 34 0 12-5 24-14 33-4 4-10 8-15 10-6 3-12 4-19 4-6 0-12-1-18-4-6-2-11-6-15-10l-202-201c-4-5-8-10-10-16-2-5-4-12-4-18 0-6 2-12 4-18 2-6 6-11 10-16l202-203c4-5 9-8 15-10 6-3 12-4 18-4 7 0 13 1 19 4 5 2 11 5 15 10 9 9 14 21 14 33 0 13-5 25-14 34l-168 170z" horiz-adv-x="1000" />

<glyph glyph-name="freccia_su" unicode="&#xe829;" d="M737 301l-204 202c-4 4-9 8-15 10-6 2-12 4-19 4-6 0-12-2-18-4-6-2-11-6-15-10l-202-202c-4-4-8-10-10-15-3-6-4-12-4-19 0-6 1-12 4-18 2-6 6-11 10-15 9-9 21-14 34-14 12 0 24 5 33 14l168 168 169-168c9-9 21-14 33-14 6 0 12 1 18 3 6 3 11 6 16 11 4 4 8 9 11 15 2 5 4 12 4 18 0 6-1 12-3 18-2 6-6 12-10 16z" horiz-adv-x="1000" />

<glyph glyph-name="geo" unicode="&#xe82a;" d="M536 21c13-35 63-36 77-1l257 611c13 34-21 69-55 55l-612-256c-35-15-34-64 1-77l222-86c11-4 20-13 24-24l86-222z m-8 252c0 0 0 0 0 0l48-126 178 423-423-177 125-49c0 0 0 0 0 0 33-12 59-38 72-71z" horiz-adv-x="1042" />

<glyph glyph-name="id" unicode="&#xe82b;" d="M875 725h-750c-11 0-22-4-29-12-8-8-13-19-13-30v-666c0-11 5-22 13-30 7-8 18-12 29-12h750c11 0 22 4 30 12 7 8 12 19 12 30v666c0 11-5 22-12 30-8 8-19 12-30 12z m-42-667h-666v584h666v-584z m-541 161c0-20 16-36 36-36 20 0 36 16 36 36v262c0 20-16 36-36 36-20 0-36-16-36-36v-262z m155 3c0-20 16-36 36-36h92c104 0 175 72 175 164v1c0 92-71 163-175 163h-92c-20 0-36-16-36-36v-256z m72 29v198h56c59 0 99-41 99-99v-1c0-58-40-98-99-98h-56z" horiz-adv-x="1000" />

<glyph glyph-name="info" unicode="&#xe82c;" d="M458 517c0 23 19 41 42 41 23 0 42-18 42-41v-42c0-23-19-42-42-42-23 0-42 19-42 42v42z m0-167c0 23 19 42 42 42 23 0 42-19 42-42v-167c0-23-19-41-42-41-23 0-42 18-42 41v167z m42 417c-230 0-417-187-417-417 0-230 187-417 417-417 230 0 417 187 417 417 0 230-187 417-417 417z m0-750c-184 0-333 149-333 333 0 184 149 333 333 333 184 0 333-149 333-333 0-184-149-333-333-333z" horiz-adv-x="1000" />

<glyph glyph-name="linkedin" unicode="&#xe82d;" d="M152 808c-61 0-110-49-110-110 0-60 49-110 110-110 60 0 110 50 110 110 0 61-50 110-110 110z m0-73c20 0 36-16 36-37 0-20-16-36-36-36-21 0-37 16-37 36 0 21 16 37 37 37z m-74-183c-9 0-19-4-26-11-6-7-10-16-10-26v-550c0-10 4-19 10-26 7-7 17-11 26-11h147c10 0 19 4 26 11 7 7 11 16 11 26v550c0 10-4 19-11 26-7 7-16 11-26 11h-147z m294 0c-10 0-19-4-26-11-7-7-11-16-11-26v-550c0-10 4-19 11-26 7-7 16-11 26-11h146c10 0 19 4 26 11 7 7 11 16 11 26v275c0 51 41 92 92 92 50 0 91-41 91-92v-92-183c0-10 4-19 11-26 7-7 16-11 26-11h147c9 0 19 4 26 11 7 7 10 16 10 26v312c0 151-123 275-275 275-47 0-89-16-128-37 0 10-4 19-11 26-7 7-16 11-26 11h-146z m-257-74h73v-476h-73v476z m293 0h74v-30c0-7 2-14 6-20 4-6 9-10 16-13 7-3 14-4 21-3 7 2 14 5 19 10 36 35 85 56 139 56 112 0 202-89 202-201v-275h-73v146 92c0 91-75 165-165 165-91 0-165-74-165-165v-238h-74v476z" horiz-adv-x="1000" />

<glyph glyph-name="lavoro" unicode="&#xe82e;" d="M792 579h-125v42c0 33-13 65-37 88-23 24-55 37-88 37h-84c-33 0-65-13-88-37-23-23-37-55-37-88v-42h-125c-33 0-65-13-88-36-23-24-37-56-37-89v-375c0-33 14-65 37-88 23-24 55-37 88-37h584c33 0 65 13 88 37 24 23 37 55 37 88v375c0 33-13 65-37 89-23 23-55 36-88 36z m-375 42c0 11 4 22 12 29 8 8 18 13 29 13h84c11 0 21-5 29-13 8-7 12-18 12-29v-42h-166v42z m416-542c0-11-4-21-12-29-8-8-18-12-29-12h-584c-11 0-21 4-29 12-8 8-12 18-12 29v211h125v-44c0-11 4-22 12-30 8-7 18-12 29-12 11 0 22 5 30 12 8 8 12 19 12 30v44h250v-44c0-11 4-22 12-30 8-7 19-12 30-12 11 0 21 5 29 12 8 8 12 19 12 30v44h125v-211z m0 292h-666v83c0 11 4 22 12 30 8 7 18 12 29 12h584c11 0 21-5 29-12 8-8 12-19 12-30v-83z" horiz-adv-x="1000" />

<glyph glyph-name="link-esterno" unicode="&#xe82f;" d="M750 399c-11 0-22-4-29-12-8-8-13-18-13-29v-300c0-11-4-21-12-29-8-8-18-12-29-12h-459c-11 0-21 4-29 12-8 8-12 18-12 29v459c0 11 4 21 12 29 8 8 18 12 29 12h300c11 0 21 5 29 13 8 7 12 18 12 29 0 11-4 22-12 30-8 7-18 12-29 12h-300c-33 0-65-13-88-37-23-23-37-55-37-88v-459c0-33 14-65 37-88 23-24 55-37 88-37h459c33 0 65 13 88 37 24 23 37 55 37 88v300c0 11-5 21-12 29-8 8-19 12-30 12z m163 342c-4 10-12 18-22 22-5 3-11 4-16 4h-250c-11 0-22-5-29-12-8-8-13-19-13-30 0-11 5-22 13-29 7-8 18-13 29-13h150l-430-428c-3-4-7-9-9-14-2-5-3-10-3-16 0-5 1-11 3-16 2-5 6-10 9-14 4-3 9-7 14-9 5-2 11-3 16-3 6 0 11 1 16 3 5 2 10 6 14 9l428 430v-150c0-11 5-22 13-29 7-8 18-13 29-13 11 0 22 5 30 13 7 7 12 18 12 29v250c0 5-1 11-4 16z" horiz-adv-x="1000" />

<glyph glyph-name="macchina-elettrica" unicode="&#xe830;" d="M788 766c-8 25-31 42-59 42h-458c-28 0-51-17-59-42l-87-249v-334c0-23 19-41 42-41h41c23 0 42 18 42 41v42h500v-42c0-23 19-41 42-41h41c23 0 42 18 42 41v334l-87 249z m-503-41h429l45-130h-519l45 130z m507-417h-584v209h584v-209z m-479 42c34 0 62 28 62 63 0 34-28 62-62 62-35 0-63-28-63-62 0-35 28-63 63-63z m375 0c34 0 62 28 62 63 0 34-28 62-62 62-35 0-63-28-63-62 0-35 28-63 63-63z m-396-333h166v83l250-125h-166v-83l-250 125z" horiz-adv-x="1000" />

<glyph glyph-name="macchina" unicode="&#xe831;" d="M788 641c-8 25-31 42-59 42h-458c-28 0-51-17-59-42l-87-249v-334c0-23 19-41 42-41h41c23 0 42 18 42 41v42h500v-42c0-23 19-41 42-41h41c23 0 42 18 42 41v334l-87 249z m-503-41h429l45-130h-519l45 130z m507-417h-584v209h584v-209z m-479 42c34 0 62 28 62 63 0 34-28 62-62 62-35 0-63-28-63-62 0-35 28-63 63-63z m375 0c34 0 62 28 62 63 0 34-28 62-62 62-35 0-63-28-63-62 0-35 28-63 63-63z" horiz-adv-x="1000" />

<glyph glyph-name="mappa" unicode="&#xe832;" d="M922 640l-250 83h-3c-2 0-4 0-6 0h-10-5-3l-237-81-236 81c-7 2-13 3-20 2-6-1-12-4-18-8-5-4-10-9-13-15-3-5-4-12-4-19v-583c0-9 2-17 7-24 6-7 13-13 21-16l250-83c8-3 17-3 26 0l237 79 237-81c4-1 9-1 13 0 9 0 18 3 25 8 5 4 9 9 12 15 3 6 5 12 5 19v583c0 9-3 17-8 24-5 8-12 13-20 16z m-555-565l-167 55v495l167-55v-495z m250 55l-167-55v495l167 55v-495z m250-55l-167 55v495l167-55v-495z" horiz-adv-x="1042" />

<glyph glyph-name="meno" unicode="&#xe833;" d="M792 392h-584c-11 0-21-5-29-12-8-8-12-19-12-30 0-11 4-22 12-29 8-8 18-13 29-13h584c11 0 21 5 29 13 8 7 12 18 12 29 0 11-4 22-12 30-8 7-18 12-29 12z" horiz-adv-x="1000" />

<glyph glyph-name="menu" unicode="&#xe834;" d="M500 558c17 0 33 5 46 14 14 10 25 23 31 38 6 15 8 32 5 48-3 16-11 31-23 43-12 11-27 19-43 22-16 4-33 2-48-4-15-7-28-17-37-31-9-14-14-30-14-46 0-22 8-44 24-59 16-16 37-25 59-25z m0-416c-16 0-33-5-46-14-14-9-25-22-31-38-6-15-8-32-5-48 4-16 11-31 23-43 12-11 27-19 43-22 16-4 33-2 48 4 15 7 28 17 37 31 9 14 14 30 14 46 0 22-8 44-24 59-16 16-37 25-59 25z m0 291c-16 0-33-5-46-14-14-9-25-22-31-37-6-15-8-32-5-48 4-16 11-31 23-43 12-12 27-19 43-23 16-3 33-1 48 5 15 6 28 17 37 31 9 13 14 30 14 46 0 22-8 43-24 59-16 16-37 24-59 24z" horiz-adv-x="1000" />

<glyph glyph-name="metro" unicode="&#xe835;" d="M283 225h72l61 226 79-226h76l80 226 60-226h72l-73 292h-110l-66-200-66 200h-111l-74-292z m-166 417c0 69 56 125 125 125h583c69 0 125-56 125-125v-584c0-69-56-125-125-125h-583c-69 0-125 56-125 125v584z m125 41c-23 0-42-18-42-41v-584c0-23 19-41 42-41h583c23 0 42 18 42 41v584c0 23-19 41-42 41h-583z" horiz-adv-x="1042" />

<glyph glyph-name="modifica" unicode="&#xe836;" d="M208 100h177c6 0 11 1 16 3 5 2 10 5 14 9l288 289 118 116c4 4 7 8 9 13 3 5 4 11 4 16 0 6-1 11-4 16-2 5-5 10-9 14l-176 179c-4 4-9 7-14 9-5 2-10 3-16 3-5 0-11-1-16-3-5-2-10-5-14-9l-117-118-289-289c-4-4-7-9-9-14-2-5-3-10-3-16v-176c0-11 4-22 12-30 8-8 18-12 29-12z m407 566l118-118-59-59-118 118 59 59z m-365-365l247 247 118-118-247-247h-118v118z m625-284h-750c-11 0-22-5-29-12-8-8-13-19-13-30 0-11 5-22 13-30 7-7 18-12 29-12h750c11 0 22 5 30 12 7 8 12 19 12 30 0 11-5 22-12 30-8 7-19 12-30 12z" horiz-adv-x="1000" />

<glyph glyph-name="monopattino-elettrico" unicode="&#xe837;" d="M326 183h299v42c0 92 75 167 167 167h31l-80 351c-8 38-42 65-81 65h-162v-83h162l58-260h0c-90-27-159-104-175-198h-219c-20 56-78 93-143 81-49-10-88-50-98-100-14-79 47-148 123-148 55 0 100 35 118 83z m-118 0c-23 0-41 19-41 42 0 23 18 42 41 42 23 0 42-19 42-42 0-23-19-42-42-42z m584 167c-69 0-125-56-125-125 0-69 56-125 125-125 69 0 125 56 125 125 0 69-56 125-125 125z m0-167c-23 0-42 19-42 42 0 23 19 42 42 42 23 0 41-19 41-42 0-23-18-42-41-42z m-334-166h-166l250-125v83h166l-250 125v-83z" horiz-adv-x="1000" />

<glyph glyph-name="mooney-freccia" unicode="&#xe838;" d="M708 350l-215 417h-201l230-417-230-417h201l215 417z" horiz-adv-x="1000" />

<glyph glyph-name="mooney-m" unicode="&#xe839;" d="M875 355c0 97-48 157-119 185l0 0c-6 2-12 4-17 6-1 0-2 0-3 1-12 3-26 6-40 8 0 0-1 0-1 0-7 1-14 2-21 3-1 0-2 0-2 0-7 0-14 0-22 0 0 0 0 0 0 0h0c-58 0-110-14-150-42-40 28-92 42-150 42 0 0 0 0 0 0h0c-7 0-14 0-21 0-1 0-2 0-3-1-7 0-14-1-21-2 0 0-1 0-2 0-6-1-13-2-19-3-1 0-1 0-1 0-6-2-13-3-19-5-1-1-2-1-3-1-5-2-11-4-16-6l0 0c-72-28-120-88-120-185v-255h150v242c0 19 3 34 9 46 12 25 36 37 66 37 31 0 55-13 67-40 5-12 8-26 8-43v-242h0 150 0v242c0 19 4 35 10 47 12 25 35 36 65 36 31 0 55-12 67-38 5-12 8-27 8-45v-242h150v255z" horiz-adv-x="1000" />

<glyph glyph-name="movimenti" unicode="&#xe83a;" d="M292 642c0-46-38-84-84-84-46 0-83 38-83 84 0 46 37 83 83 83 46 0 84-37 84-83z m541 41h-416c-23 0-42-18-42-41 0-23 19-42 42-42h416c23 0 42 19 42 42 0 23-19 41-42 41z m0-291h-416c-23 0-42-19-42-42 0-23 19-42 42-42h416c23 0 42 19 42 42 0 23-19 42-42 42z m-416-292h416c23 0 42-19 42-42 0-23-19-41-42-41h-416c-23 0-42 18-42 41 0 23 19 42 42 42z m-209 167c46 0 84 37 84 83 0 46-38 83-84 83-46 0-83-37-83-83 0-46 37-83 83-83z m84-209c0-46-38-83-84-83-46 0-83 37-83 83 0 46 37 84 83 84 46 0 84-38 84-84z" horiz-adv-x="1000" />

<glyph glyph-name="negozio" unicode="&#xe83b;" d="M913 480l-44 182c-9 37-42 63-80 63h-92-84-71-84-71-84-93c-37 0-70-26-79-63l-43-182c-10-43-1-86 25-120 2-3 5-5 7-8 2-1 4-3 5-4v-290c0-45 38-83 83-83h167 42c23 0 41 19 41 42v125c0 23 19 41 42 41 23 0 42-18 42-41v-125c0-23 18-42 41-42h42 167c46 0 83 38 83 83v290c1 1 3 2 4 3 3 3 5 5 8 8 26 34 36 78 26 121z m-288-422l125 0c23 0 42 19 42 42v210c-1-1-2-1-3-1-2 0-4-1-6-1-37 0-70 15-94 40-25-25-58-40-93-40-38 0-71 15-96 39-24-24-56-39-92-39-38 0-72 15-97 40-24-25-57-40-93-40-2 0-4 1-6 1-1 0-2 0-4 1v-210c0-23 19-42 42-42l125 0v125c0 46 37 84 83 84h84c46 0 83-38 83-84v-125z m-332 584l-25-203c-3-27-25-47-50-47-20 0-33 12-39 19-11 14-14 32-10 49l41 182h83z m495 0l44-182c4-17 0-35-11-49-6-7-18-19-39-19-25 0-47 20-50 47l-24 203 80 0z m-142-189c2-16-3-32-13-44-10-11-23-17-40-17-28 0-51 24-51 54v196h81l23-189z m-188-7c0-30-23-54-53-54-15 0-27 6-37 17-11 12-16 28-14 44l23 189h81v-196z" horiz-adv-x="1000" />

<glyph glyph-name="noleggio" unicode="&#xe83c;" d="M375 121c23 0 42 19 42 42 0 23-19 41-42 41-23 0-42-18-42-41 0-23 19-42 42-42z m250 0c23 0 42 19 42 42 0 23-19 41-42 41-23 0-42-18-42-41 0-23 19-42 42-42z m94 329c-1 1-1 2-2 3-16 22-39 22-39 22h-356c0 0-23 0-39-22 0-1-1-2-2-3-3-5-6-10-8-17-9-27-30-92-65-195v-271c0-19 15-34 33-34h18c18 0 33 15 33 34v50h416v-50c0-19 15-34 33-34h18c18 0 33 15 33 34v271c-34 102-56 168-65 195-2 7-5 12-8 17z m-372-58h306l10-29 17-55h-360l27 84z m361-292h-416v125 0h416v0-125z m-257 625c-17 49-63 83-118 83-69 0-125-55-125-125 0-68 56-125 125-125 55 0 101 35 118 84h216v-84h83v84h42v83h-341z m-118-83c-23 0-41 18-41 41 0 23 18 42 41 42 23 0 42-19 42-42 0-23-19-41-42-41z" horiz-adv-x="1000" />

<glyph glyph-name="non-attivo" unicode="&#xe83d;" d="M708 475h-333v83c0 25 7 49 21 70 14 21 33 37 56 46 23 10 48 12 72 7 25-4 47-16 64-34 16-16 27-36 33-57 1-6 4-11 7-15 3-4 7-8 12-11 5-3 10-5 15-5 6-1 11-1 17 1 5 1 10 3 14 7 5 3 8 7 11 12 3 5 5 10 6 15 0 6 0 11-1 16-10 37-29 69-55 96-29 29-66 49-107 57-40 8-82 4-120-12-38-16-70-43-93-77-23-34-35-74-35-116v-83c-33 0-65-13-89-37-23-23-36-55-36-88v-292c0-33 13-65 36-88 24-24 56-37 89-37h416c34 0 65 13 89 37 23 23 36 55 36 88v292c0 33-13 65-36 88-24 24-55 37-89 37z m42-417c0-11-4-21-12-29-8-8-19-12-30-12h-416c-11 0-22 4-30 12-8 8-12 18-12 29v292c0 11 4 22 12 30 8 7 19 12 30 12h416c11 0 22-5 30-12 8-8 12-19 12-30v-292z" horiz-adv-x="1000" />

<glyph glyph-name="non-acquistabile" unicode="&#xe83e;" d="M905 5l-750 750c-8 7-19 12-30 12-11 0-22-5-30-12-7-8-12-19-12-30 0-7 2-15 6-21-4-6-6-13-6-21 0-11 5-21 13-29 7-8 18-12 29-12h25l17-17 46-47 65-229c-31-3-61-19-81-43-21-24-32-56-30-88 2-32 16-62 39-84 23-22 54-34 86-34h399l21-21 133-134c4-4 9-7 14-9 5-2 11-3 16-3 6 0 11 1 16 3 5 2 10 5 14 9 4 4 7 9 9 14 2 5 3 10 3 16 0 5-1 11-3 16-2 5-5 10-9 14z m-297 178l-83 84h-233c-11 0-22-5-30-12-8-8-12-19-12-30 0-11 4-22 12-29 8-8 19-13 30-13h316z m-274 274l31-107h76l-107 107z m387-165c-2-2-5-3-7-5l-63 63c7 1 14 4 20 8 7 6 12 14 15 22l50 178h-293l-83 84h432c6 0 13-2 18-5 6-3 11-7 15-12 4-5 6-11 8-17 1-7 1-13-1-19l-66-232c-8-26-24-49-45-65z m-367-234c-12 0-24-3-35-10-10-7-18-17-23-28-4-12-5-24-3-36 2-13 8-24 17-32 9-9 20-15 32-18 12-2 25-1 36 4 12 5 21 13 28 23 7 10 11 22 11 35 0 16-7 32-19 44-11 12-27 18-44 18z m334 0c-13 0-25-3-35-10-10-7-18-17-23-28-5-12-6-24-4-36 3-13 9-24 17-32 9-9 20-15 32-18 12-2 25-1 36 4 12 5 22 13 29 23 6 10 10 22 10 35 0 16-7 32-18 44-12 12-28 18-44 18z" horiz-adv-x="1000" />

<glyph glyph-name="obu" unicode="&#xe83f;" d="M750 564h-500c-46 0-83-35-83-78v-272c0-43 37-78 83-78h500c46 0 83 35 83 78v272c0 43-37 78-83 78z m-500 78c-92 0-167-70-167-156v-272c0-86 75-156 167-156h500c92 0 167 70 167 156v272c0 86-75 156-167 156h-500z m491-292l-68 125h-63l72-125-72-125h63l68 125z m-219 125l68-125-68-125h-64l73 125-73 125h64z" horiz-adv-x="1000" />

<glyph glyph-name="instagram" unicode="&#xe840;" d="M727 850c153 0 273-120 273-273l0-454c0-153-120-273-273-273l-454 0c-153 0-273 120-273 273l0 454c0 153 120 273 273 273l454 0z m0-91l-454 0c-102 0-182-80-182-182l0-454c0-102 80-182 182-182l454 0c102 0 182 80 182 182l0 454c0 102-80 182-182 182z m-258-182c24 5 48 5 72-1 96-17 169-91 186-191 0-1 0-1 0-2 17-124-68-238-194-255-124-17-238 68-255 193-17 119 66 237 191 256z m19-89c-1-1-3-1-5-1-74-10-125-82-115-153 10-75 78-127 153-116 75 10 126 77 116 152-11 63-55 107-113 117-1 0-2 0-3 1-11 2-22 2-33 0z m285 180c25 0 45-20 45-45 0-25-20-46-45-46-25 0-46 21-46 46 0 25 21 45 46 45z" horiz-adv-x="1000" />

<glyph glyph-name="orologio" unicode="&#xe841;" d="M662 324l-87 50v184c0 11-4 22-12 30-8 8-19 12-30 12-11 0-21-4-29-12-8-8-12-19-12-30v-208c0-7 2-14 5-21 4-6 9-11 16-15l108-63c5-2 10-4 15-5 6 0 11 0 16 1 6 2 11 4 15 7 4 4 8 8 11 13 2 4 4 10 5 15 1 6 0 11-1 16-2 6-4 11-7 15-4 4-8 8-13 11z m-129 443c-82 0-163-25-231-71-69-45-122-110-154-186-31-77-39-160-23-241 16-81 55-155 114-214 58-58 132-98 213-114 81-16 165-8 241 24 76 32 141 85 187 154 46 68 70 149 70 231 0 111-44 216-122 295-78 78-184 122-295 122z m0-750c-66 0-130 19-185 56-55 37-97 89-123 149-25 61-31 128-19 193 13 65 45 124 92 171 46 46 106 78 170 91 65 13 132 6 193-19 61-25 113-68 150-123 36-55 56-119 56-185 0-88-36-173-98-236-63-62-147-97-236-97z" horiz-adv-x="1042" />

<glyph glyph-name="pagamento-revocato" unicode="&#xe842;" d="M140 734l-57-56 93-93c-44-65-68-142-68-223 0-222 182-404 404-404 81 0 158 24 223 68l93-93 56 57-744 744z m372-695c-178 0-323 145-323 323 0 61 16 117 44 166l441-441c-45-32-101-48-162-48z m-162 602l-60 57c64 44 141 69 222 69 223 0 405-182 405-405 0-81-25-158-69-222l-57 60c29 49 45 106 45 162 0 178-146 324-324 324-60 0-113-16-162-45z" horiz-adv-x="1000" />

<glyph glyph-name="scroll-up-outline" unicode="&#xe843;" d="M0-108l938 518 937-518 0 451-937 486-938-484 0-453z m938 902l906-470 0-379-906 501-907-501 0 381 907 468z" horiz-adv-x="1875" />

<glyph glyph-name="pagamento" unicode="&#xe844;" d="M792 267v333c0 46-38 83-84 83h-583c-46 0-83-37-83-83v-333c0-46 37-84 83-84h583c46 0 84 38 84 84z m-167 333h-417c0-46-37-83-83-83v-167c46 0 83-37 83-83h417c0 46 37 83 83 83v167c-46 0-83 37-83 83z m293-42c23 0 40-18 40-41v-417c0-46-37-83-83-83h-667c-23 0-41 17-41 40 0 23 18 43 41 43h667v417c0 23 20 41 43 41z" horiz-adv-x="1000" />

<glyph glyph-name="parcheggio-multiplo" unicode="&#xe845;" d="M208 660c0 59 48 107 107 107h495c59 0 107-48 107-107v-495c0-59-48-107-107-107v71c20 0 36 16 36 36v495c0 20-16 36-36 36h-495c-20 0-36-16-36-36h-71z m-125-125c0 59 48 107 107 107h495c59 0 107-48 107-107v-495c0-59-48-107-107-107h-495c-59 0-107 48-107 107v495z m107 36c-20 0-36-16-36-36v-495c0-20 16-36 36-36h495c20 0 36 16 36 36v495c0 20-16 36-36 36h-495z m259-96h-157v-375h89v125h68c74 0 134 56 134 125 0 69-60 125-134 125z m4-167h-72v84h72c25 0 45-19 45-42 0-23-20-42-45-42z" horiz-adv-x="1000" />

<glyph glyph-name="parcheggio" unicode="&#xe846;" d="M83 642c0 69 56 125 125 125h584c69 0 125-56 125-125v-584c0-69-56-125-125-125h-584c-69 0-125 56-125 125v584z m125 41c-23 0-41-18-41-41v-584c0-23 18-41 41-41h584c23 0 41 18 41 41v584c0 23-18 41-41 41h-584z m305-83h-180v-458h103v152h77c85 0 154 69 154 153 0 85-69 153-154 153z m5-204h-82v102h82c28 0 51-23 51-51 0-28-23-51-51-51z" horiz-adv-x="1000" />

<glyph glyph-name="password-notvisibile" unicode="&#xe847;" d="M500 600c158 0 299-89 368-229-25-51-60-95-101-130l59-59c58 51 104 116 132 189-72 183-250 312-458 312-53 0-104-8-152-23l69-69c27 5 55 9 83 9z m-45-47l87-87c23-10 43-29 53-53l86-86c4 14 6 29 6 44 1 104-84 187-187 187-15 0-30-2-45-5z m-342 165c-16-16-16-42 0-59l82-82c-67-53-121-124-153-206 72-183 250-313 458-313 63 0 124 12 180 35l113-114c16-16 43-16 59 0 16 17 16 43 0 59l-680 680c-16 17-43 17-59 0z m283-342l109-108c-2-1-3-1-5-1-57 0-104 46-104 104 0 2 0 3 0 5z m-141 142l73-73c-10-23-15-48-15-74 0-103 84-188 187-188 26 0 51 6 74 15l41-40c-37-10-75-16-115-16-158 0-299 88-367 229 29 59 71 109 122 147z" horiz-adv-x="1000" />

<glyph glyph-name="password-visible" unicode="&#xe848;" d="M500 600c158 0 299-89 368-229-69-141-210-229-368-229-158 0-299 88-367 229 68 140 209 229 367 229z m0 83c-208 0-386-129-458-312 72-183 250-313 458-313 208 0 386 130 458 313-72 183-250 312-458 312z m0-208c58 0 104-47 104-104 0-58-46-104-104-104-57 0-104 46-104 104 0 57 47 104 104 104z m0 83c-103 0-187-84-187-187 0-103 84-188 187-188 103 0 188 85 188 188 0 103-85 187-188 187z" horiz-adv-x="1000" />

<glyph glyph-name="pdf" unicode="&#xe849;" d="M833 767h-500c-45 0-83-38-83-84v-500c0-45 38-83 83-83h500c46 0 84 38 84 83v500c0 46-38 84-84 84z m0-584h-500v500h500v-500z m-166 167v125c0 25-17 42-42 42h-83v-209h83c25 0 42 17 42 42z m-84 125h42v-125h-42v125z m167-83h42v41h-42v42h42v42h-84v-209h42v84z m-333 0h41c25 0 42 16 42 41v42c0 25-17 42-42 42h-83v-209h42v84z m0 83h41v-42h-41v42z m-292 125c23 0 42-19 42-42v-500c0-23 18-41 41-41h500c23 0 42-19 42-42 0-23-19-42-42-42h-500c-69 0-125 56-125 125v500c0 23 19 42 42 42z" horiz-adv-x="1000" />

<glyph glyph-name="pieno" unicode="&#xe84a;" d="M333 350c92 0 167 75 167 167 0 92-75 166-167 166-92 0-166-74-166-166 0-92 74-167 166-167z m0-42c-111 0-333-55-333-166v-125h667v125c0 111-222 166-334 166z m188 373c39-44 62-101 62-164 0-63-23-121-62-165 82 11 146 80 146 165 0 85-64 154-146 164z m146 2c38-44 62-101 62-164 0-63-24-121-62-165 81 11 145 80 145 165 0 85-64 154-145 164z m22-409c37-35 61-78 61-132v-125h83v125c0 60-66 104-144 132z m145 2c37-35 61-78 61-132v-125h84v125c0 60-66 104-145 132z" horiz-adv-x="1000" />

<glyph glyph-name="pin" unicode="&#xe84b;" d="M533 767c-161 0-291-131-291-292 0-175 187-417 261-507 16-19 44-19 60 0 75 90 262 332 262 507 0 161-130 292-292 292z m-208-292c0 115 93 208 208 208 115 0 209-93 209-208 0-120-120-300-209-412-86 112-208 293-208 412z m208-104c58 0 105 47 105 104 0 58-47 104-105 104-57 0-104-46-104-104 0-57 47-104 104-104z" horiz-adv-x="1042" />

<glyph glyph-name="pin-fill" unicode="&#xe84c;" d="M533 767c-161 0-291-131-291-292 0-174 184-413 260-505 16-20 47-20 63 0 76 92 260 331 260 505 0 161-130 292-292 292z m0-396c-57 0-104 47-104 104 0 58 47 104 104 104 58 0 105-46 105-104 0-57-47-104-105-104z" horiz-adv-x="1042" />

<glyph glyph-name="più" unicode="&#xe84d;" d="M792 392h-250v250c0 11-5 21-12 29-8 8-19 12-30 12-11 0-22-4-29-12-8-8-13-18-13-29v-250h-250c-11 0-21-5-29-12-8-8-12-19-12-30 0-11 4-22 12-29 8-8 18-13 29-13h250v-250c0-11 5-21 13-29 7-8 18-12 29-12 11 0 22 4 30 12 7 8 12 18 12 29v250h250c11 0 21 5 29 13 8 7 12 18 12 29 0 11-4 22-12 30-8 7-18 12-29 12z" horiz-adv-x="1000" />

<glyph glyph-name="poco-affollato" unicode="&#xe84e;" d="M333 350c92 0 167 75 167 167 0 92-75 166-167 166-92 0-166-74-166-166 0-92 74-167 166-167z m0 250c46 0 84-37 84-83 0-46-38-84-84-84-45 0-83 38-83 84 0 46 38 83 83 83z m0-292c-111 0-333-55-333-166v-125h667v125c0 111-222 166-334 166z m250-208h-500v41c9 30 138 84 250 84 113 0 242-54 250-83v-42z m-62 581c39-44 62-101 62-164 0-63-23-121-62-165 82 11 146 80 146 165 0 85-64 154-146 164z m168-407c37-35 61-78 61-132v-125h83v125c0 60-66 104-144 132z" horiz-adv-x="1000" />

<glyph glyph-name="portafoglio" unicode="&#xe84f;" d="M825 511h-614c-15 0-30 3-44 8v-424c0-11 4-22 12-30 8-8 18-12 29-12h575c11 0 22 4 29 12 8 8 13 19 13 30v127h-89c-34 0-66 14-90 38-24 24-38 56-38 90 0 34 14 67 38 91 24 23 56 37 90 37h89v33z m35 83h-35v173h-614c-34 0-66-14-90-38-23-22-36-52-37-83-1-2-1-3-1-4v-3-544c0-34 14-65 37-89 23-23 55-36 88-36h575c33 0 65 13 88 36 24 24 37 55 37 89v458 0c0 11-4 22-12 29-8 8-19 13-30 13-2 0-4-1-6-1z m-35-199h-89c-12 0-23-5-31-13-9-9-13-20-13-32 0-12 4-23 13-31 8-9 19-14 31-14h89v90z m-658 244c0-12 4-23 13-32 8-8 19-13 31-13h530v89h-530c-12 0-23-4-31-13-9-8-13-19-13-31z" horiz-adv-x="1000" />

<glyph glyph-name="position" unicode="&#xe850;" d="M875 392h-45c-9 73-42 141-95 193-52 53-120 86-193 95v45c0 11-5 22-12 30-8 7-19 12-30 12-11 0-22-5-29-12-8-8-13-19-13-30v-45c-73-9-141-42-193-95-53-52-86-120-95-193h-45c-11 0-22-5-29-12-8-8-13-19-13-30 0-11 5-22 13-29 7-8 18-13 29-13h45c9-73 42-141 95-193 52-53 120-86 193-95v-45c0-11 5-22 13-30 7-7 18-12 29-12 11 0 22 5 30 12 7 8 12 19 12 30v45c73 9 141 42 193 95 53 52 86 120 95 193h45c11 0 22 5 30 13 7 7 12 18 12 29 0 11-5 22-12 30-8 7-19 12-30 12z m-375-292c-49 0-98 15-139 42-41 28-73 67-92 112-19 46-24 96-14 145 9 48 33 93 68 128 35 35 80 59 128 68 49 10 99 5 145-14 45-19 84-51 112-92 27-41 42-90 42-139 0-66-26-130-73-177-47-47-111-73-177-73z m0 375c-25 0-49-7-69-21-21-14-37-33-46-56-10-23-12-48-8-72 5-25 17-47 35-64 17-18 39-30 64-35 24-4 49-2 72 8 23 9 42 25 56 46 14 20 21 44 21 69 0 33-13 65-37 88-23 24-55 37-88 37z m0-167c-8 0-16 3-23 7-7 5-12 11-15 19-4 8-4 16-3 24 2 8 6 16 12 22 5 5 13 9 21 11 8 2 16 1 24-2 8-4 14-9 19-16 4-7 7-15 7-23 0-11-5-22-12-29-8-8-19-13-30-13z" horiz-adv-x="1000" />

<glyph glyph-name="qr-code" unicode="&#xe851;" d="M125 392h333v333h-333v-333z m83 250h167v-167h-167v167z m-83-667h333v333h-333v-333z m83 250h167v-167h-167v167z m334 500v-333h333v333h-333z m250-250h-167v167h167v-167z m83-417h-83v-83h83v83z m-250 250h-83v-83h83v83z m83-83h-83v-83h83v83z m-83-83h-83v-84h83v84z m83-84h-83v-83h83v83z m84 84h-84v-84h84v84z m0 166h-84v-83h84v83z m83-83h-83v-83h83v83z" horiz-adv-x="1000" />

<glyph glyph-name="rating" unicode="&#xe852;" d="M950 447c-3 8-7 14-14 19-6 5-14 8-22 9l-237 35-106 215c-4 7-9 13-16 17-6 4-14 7-22 7-7 0-15-3-22-7-6-4-12-10-15-17l-106-215-237-35c-8-1-15-4-21-9-6-5-11-12-13-19-2-8-3-15-1-23 2-7 6-14 11-19l172-167-41-236c-2-8-1-16 2-24 3-7 8-13 14-18 7-5 14-7 22-8 7 0 15 1 22 5l213 111 213-111c6-4 12-5 19-5 9 0 17 2 25 8 6 4 11 11 14 18 3 7 4 15 2 23l-41 237 172 167c6 5 10 11 13 19 2 7 2 16 0 23z" horiz-adv-x="1042" />

<glyph glyph-name="razzo" unicode="&#xe853;" d="M942 764c-2 7-6 14-11 19-5 5-12 9-19 11-85 22-175 20-260-7-84-27-159-77-216-144l-46-55-109 26c-26 9-55 8-81-2-26-10-47-30-60-55l-92-162c-3-6-5-12-5-19 0-6 1-13 4-19 2-6 7-11 12-15 5-4 11-7 17-8l128-28c-11-33-19-67-23-101-1-7 0-13 2-19 2-6 5-12 10-16l129-129c4-4 8-7 13-9 6-2 11-3 16-3 2 0 3 0 4 0 35 3 70 10 104 20l27-125c1-7 4-12 8-18 4-5 9-9 15-11 6-3 13-4 19-4 7 0 13 2 19 5l163 92c23 14 40 35 51 60 10 24 12 52 6 78l-28 115 52 47c67 57 117 132 144 216 27 85 29 175 7 260z m-793-361l65 115c4 8 11 14 19 17 8 3 17 2 25-1l72-17-27-33c-26-30-48-64-66-100l-88 19z m519-342l-113-64-18 83c37 18 70 41 101 68l31 28 17-69c2-9 1-18-2-26-3-8-8-15-16-20z m68 290l-154-141c-61-53-136-86-215-96l-100 100c13 80 48 155 100 217l70 83c1 1 2 2 3 4l60 71c44 52 101 92 166 114 64 23 133 29 201 16 13-68 7-137-16-202-23-65-63-122-115-166z m-39 257c-12 0-24-4-34-11-11-7-19-16-23-28-5-11-6-24-4-36 2-12 8-23 17-32 9-9 20-15 32-17 12-3 25-1 36 3 12 5 21 13 28 23 7 11 11 23 11 35 0 8-2 17-5 24-3 8-8 15-14 20-5 6-12 11-20 14-7 3-16 5-24 5l0 0z" horiz-adv-x="1000" />

<glyph glyph-name="ricerca" unicode="&#xe854;" d="M938 5l-155 153c60 75 89 170 82 265-8 96-52 185-124 249-71 64-165 98-260 95-96-2-188-41-255-109-68-68-107-159-110-255-3-96 32-189 96-261 64-71 152-115 248-123 96-8 191 21 265 81l154-153c4-4 8-7 13-10 5-2 11-3 16-3 6 0 11 1 16 3 5 3 10 6 14 10 7 7 12 18 12 29 0 10-5 21-12 29z m-446 95c-58 0-114 17-162 49-48 32-86 78-108 131-22 53-28 112-16 169 11 56 39 108 79 149 41 41 93 69 150 80 56 11 115 5 168-17 54-22 99-59 131-107 32-48 49-105 49-162 0-78-30-152-85-207-55-54-129-85-206-85z" horiz-adv-x="1042" />

<glyph glyph-name="scooter-elettrico" unicode="&#xe855;" d="M792 642c0 46-38 83-84 83h-125v-83h125v-111l-145-181h-146v208h-167c-92 0-167-74-167-166v-125h84c0-69 56-125 125-125 69 0 125 56 125 125h186l189 235v140z m-625-292v42c0 46 37 83 83 83h83v-125h-166z m125-125c-23 0-42 19-42 42h83c0-23-18-42-41-42z m125 458h-209v-83h209v83z m375-291c-69 0-125-56-125-125 0-69 56-125 125-125 69 0 125 56 125 125 0 69-56 125-125 125z m0-167c-23 0-42 19-42 42 0 23 19 41 42 41 23 0 41-18 41-41 0-23-18-42-41-42z m-500-208h166v83l250-125h-166v-83l-250 125z" horiz-adv-x="1000" />

<glyph glyph-name="sharing" unicode="&#xe856;" d="M830 204h-189c-11 0-22-5-30-12-7-8-12-19-12-30 0-11 5-22 12-29 8-8 19-13 30-13h100c-46-48-105-81-170-95-65-14-133-8-195 16-61 25-114 68-152 123-37 55-57 120-57 186 0 11-5 22-12 30-8 7-19 12-30 12-11 0-22-5-29-12-8-8-13-19-13-30 1-81 25-161 70-229 44-68 108-121 183-153 75-32 157-41 237-27 81 14 155 52 214 108v-74c0-11 4-22 12-30 8-7 18-12 29-12 11 0 22 5 30 12 8 8 12 19 12 30v188c0 10-4 21-12 28-7 8-18 12-28 13z m-205 146c0 25-7 49-21 69-14 21-33 37-56 47-23 9-48 11-72 7-25-5-47-17-64-35-18-17-30-39-35-64-4-24-2-49 8-72 9-23 25-42 46-56 20-14 44-21 69-21 33 0 65 13 88 37 24 23 37 55 37 88z m-167 0c0 8 3 16 7 23 5 7 11 12 19 16 8 3 16 4 24 2 8-2 16-6 22-11 5-6 9-14 11-22 2-8 1-16-2-24-4-8-9-14-16-19-7-4-15-7-23-7-11 0-22 5-29 13-8 7-13 18-13 29z m42 417c-107-1-209-42-287-116v74c0 11-4 22-12 30-8 7-18 12-29 12-11 0-22-5-30-12-8-8-12-19-12-30v-187c0-12 4-22 12-30 8-8 19-12 30-12h187c11 0 22 4 30 12 7 8 12 18 12 30 0 11-5 21-12 29-8 8-19 12-30 12h-100c46 48 105 81 170 96 65 14 133 8 195-17 61-24 114-67 152-122 37-55 57-120 57-186 0-11 5-22 13-29 7-8 18-13 29-13 11 0 22 5 30 13 7 7 12 18 12 29 0 55-11 109-32 160-21 50-52 96-90 135-39 38-85 69-136 90-50 21-104 32-159 32z" horiz-adv-x="1000" />

<glyph glyph-name="sosta-strisce-blu" unicode="&#xe857;" d="M833 767h-666c-46 0-84-38-84-84v-666c0-46 38-84 84-84h666c46 0 84 38 84 84v666c0 46-38 84-84 84z m0-750h-666v666h666v-666z m-458 250c23 0 42 18 42 41 0 23-19 42-42 42-23 0-42-19-42-42 0-23 19-41 42-41z m250 0c23 0 42 18 42 41 0 23-19 42-42 42-23 0-42-19-42-42 0-23 19-41 42-41z m-384-188h18c18 0 33 15 33 34v50h416v-50c0-19 15-34 33-34h18c18 0 33 15 33 34v271c-34 102-56 168-65 195-2 7-5 12-8 17-1 1-1 2-2 3-16 21-39 22-39 22h-356c0 0-23-1-39-23 0 0-1-1-2-2-3-5-6-10-8-17-9-27-30-92-65-195v-271c0-19 15-34 33-34z m106 459h306l10-29 17-55h-360l27 84z m-55-168v1h416v-1-124h-416v124z" horiz-adv-x="1000" />

<glyph glyph-name="stazione-ricarica" unicode="&#xe859;" d="M824 549l0 0-155 155-44-44 88-88c-39-15-67-52-67-97 0-57 47-104 104-104 15 0 29 3 42 9v-301c0-23-19-41-42-41-23 0-42 18-42 41v188c0 46-37 83-83 83h-42v292c0 46-37 83-83 83h-250c-46 0-83-37-83-83v-667h416v313h63v-209c0-57 47-104 104-104 58 0 104 47 104 104v396c0 29-11 55-30 74z m-324-157v-334h-250v584h250v-250z m250 41c-23 0-42 19-42 42 0 23 19 42 42 42 23 0 42-19 42-42 0-23-19-42-42-42z m-333 167l-167-312h83v-188l167 292h-83v208z" horiz-adv-x="1000" />

<glyph glyph-name="supporto" unicode="&#xe85a;" d="M470 213c-1-2-3-4-5-6-1-3-2-5-3-8-1-2-2-5-3-7 0-3 0-6 0-9 0-5 1-11 4-15 1-6 4-10 8-14 4-4 9-7 14-9 5-2 10-3 16-3 5 0 11 1 16 3 5 2 10 5 13 9 4 4 7 8 9 14 2 5 3 10 3 15 0 6-1 11-3 16-2 5-6 10-9 14-4 4-9 7-14 9-5 2-10 3-16 3-5 0-11-1-16-3-5-2-10-5-14-9z m30 554c-82 0-163-25-231-71-69-45-122-110-154-186-31-77-40-160-24-241 16-81 56-155 114-214 59-58 133-98 214-114 81-16 164-8 240 24 77 32 142 85 187 154 46 68 71 149 71 231 0 55-11 109-32 160-21 50-52 96-90 135-39 38-85 69-136 90-50 21-104 32-159 32z m0-750c-66 0-130 19-185 56-55 37-98 89-123 149-25 61-32 128-19 193 13 65 45 124 91 171 47 46 106 78 171 91 65 13 132 6 193-19 61-25 113-68 149-123 37-55 56-119 56-185 0-88-35-173-97-236-63-62-148-97-236-97z m0 541c-22 0-43-5-62-16-20-11-35-27-46-46-3-5-5-10-6-16-1-5-1-11 0-16 2-6 4-11 8-15 3-5 7-9 12-12 5-2 10-4 16-5 5-1 11 0 16 2 6 1 11 4 15 7 5 4 8 8 11 13 3 7 9 12 15 16 6 3 14 5 21 5 11 0 22-4 30-12 7-8 12-19 12-30 0-11-5-21-12-29-8-8-19-12-30-12-11 0-22-5-29-12-8-8-13-19-13-30v-42c0-11 5-21 13-29 7-8 18-12 29-12 11 0 22 4 30 12 7 8 12 18 12 29v8c27 10 50 29 65 55 15 25 20 55 15 84-5 28-20 55-42 74-22 19-51 29-80 29z" horiz-adv-x="1000" />

<glyph glyph-name="talloncino" unicode="&#xe85b;" d="M877 423c20 11 40 29 40 52v125c0 46-38 83-84 83h-666c-46 0-83-37-83-83v-125c0-23 20-41 40-52 25-14 43-42 43-73 0-31-18-59-44-73-20-11-40-29-40-52v-125c0-46 38-83 84-83h666c46 0 84 37 84 83v125c0 23-20 41-40 52-26 14-44 42-44 73 0 31 18 59 44 73z m-44 71c-49-29-83-83-83-144 0-61 34-115 83-144v-106h-666v106c49 29 83 83 83 144 0 62-33 115-83 144l0 106h666v-106z m-442-259c-4-18 16-33 32-23l66 42c7 5 15 5 22 0l66-42c16-10 36 5 31 23l-20 75c-2 8 1 17 7 22l61 49c15 12 7 36-12 37l-78 5c-8 0-15 6-18 13l-29 73c-7 18-31 18-38 0l-29-72c-3-8-10-13-18-14l-78-4c-19-1-27-25-12-37l60-50c7-5 9-13 7-21l-20-76z" horiz-adv-x="1000" />

<glyph glyph-name="taxi" unicode="&#xe85c;" d="M788 600c-8 24-31 42-59 42h-104v83h-250v-83h-104c-28 0-51-18-59-42l-87-250v-333c0-23 19-42 42-42h41c23 0 42 19 42 42v41h500v-41c0-23 19-42 42-42h41c23 0 42 19 42 42v333l-87 250z m-503-42h429l44-125h-516l43 125z m507-416h-584v194l5 14h574l5-14v-194z m-479 41c34 0 62 28 62 63 0 34-28 62-62 62-35 0-63-28-63-62 0-35 28-63 63-63z m375 0c34 0 62 28 62 63 0 34-28 62-62 62-35 0-63-28-63-62 0-35 28-63 63-63z" horiz-adv-x="1000" />

<glyph glyph-name="tessera" unicode="&#xe85d;" d="M750 433h-167v-62h167v62z m0-125h-167v-62h167v62z m83 334h-208-21c-41 0-16 0-62 0l-84 0c-45 0 0 0-62 0l-21 0h-208c-46 0-84-38-84-84v-458c0-46 38-83 84-83h666c46 0 84 37 84 83v458c0 46-38 84-84 84z m0-542h-666v458h208c42 0 38 0 83 0l63 0c46 0 62 0 104 0h208v-458z m-458 250c35 0 63 28 63 63 0 34-28 62-63 62-34 0-62-28-62-62 0-35 28-63 62-63z m87-49c-27 12-56 18-87 18-31 0-60-6-87-18-23-10-38-33-38-58v-18h250v18c0 25-15 48-38 58z" horiz-adv-x="1000" />

<glyph glyph-name="tracked-bus" unicode="&#xe85e;" d="M476 731v77c235 0 426-190 426-425h-78c0 192-156 348-348 348z m0-155v78c150 0 271-122 271-271h-77c0 106-87 193-194 193z m-393-193c0 114 131 131 262 131 145 0 262-17 262-131v-311c0-31-12-59-33-80v-68c0-18-14-32-32-32h-33c-18 0-33 14-33 32v33h-262v-33c0-18-14-32-32-32h-33c-18 0-33 14-33 32v68c-20 21-33 49-33 80v311z m448 32c-18 18-64 33-186 33-115 0-162-15-182-33h368z m-55-392c36 0 66 29 66 65v98h-393v-98c0-36 29-65 65-65h262z m-327 229h393v98h-393v-98z m82-197c27 0 49 22 49 50 0 27-22 49-49 49-27 0-49-22-49-49 0-28 22-50 49-50z m278 50c0-28-22-50-49-50-27 0-49 22-49 50 0 27 22 49 49 49 27 0 49-22 49-49z" horiz-adv-x="1000" />

<glyph glyph-name="traghetto" unicode="&#xe85f;" d="M533 658v-33h-66v33h66z m-33-237l179-59 80-26-37-132c-18 10-32 24-38 31l-51 58-50-57c-11-14-43-44-83-44-40 0-72 30-83 44l-50 57-51-57c-6-8-20-21-38-31l-37 132 80 26 179 58z m100 304h-200v-100h-100c-37 0-67-30-67-67v-154l-43-14c-8-2-16-8-20-16-4-8-5-18-2-26l64-223h1c54 0 101 29 134 67 32-38 80-67 133-67 53 0 101 29 133 67 33-38 80-67 134-67h1l63 223c3 8 2 18-2 26-4 8-11 14-20 16l-42 14v154c0 37-30 67-67 67h-100v100z m-300-299v132h400v-132l-200 66-200-66z m333-324c-40-28-87-42-133-42-46 0-93 14-133 42-41-28-87-44-134-44h-66v-66h66c46 0 92 11 134 33 42-22 87-33 133-33 46 0 91 11 133 33 42-22 88-33 134-33h66v66h-66c-47 0-93 16-134 44z" horiz-adv-x="1000" />

<glyph glyph-name="tram" unicode="&#xe860;" d="M542 642l31 62h135v63h-416v-63h198l-32-62c-130-4-250-31-250-146v-354c0-63 47-114 107-123l-65-65v-21h83l84 84h166l84-84h83v21l-65 65h0 0c60 9 107 60 107 123v354c0 115-120 142-250 146z m-82-84h80c115-3 151-24 163-41h-406c12 17 48 38 163 41z m-8-456h-129c-19 5-31 21-31 40v41h162c-10-11-16-25-16-41 0-15 5-29 14-40z m256 40c0-19-12-35-30-40h-130c9 11 15 25 15 40 0 16-7 30-17 41h162v-41z m0 125h-416v166h416v-166z" horiz-adv-x="1000" />

<glyph glyph-name="treni" unicode="&#xe862;" d="M354 183c35 0 63 28 63 63 0 34-28 62-63 62-34 0-62-28-62-62 0-35 28-63 62-63z m292 0c34 0 62 28 62 63 0 34-28 62-62 62-35 0-63-28-63-62 0-35 28-63 63-63z m-146 584c-167 0-333-21-333-167v-396c0-80 65-146 146-146l-63-62v-21h83l84 83h166l84-83h83v21l-62 62c80 0 145 66 145 146v396c0 146-166 167-333 167z m0-84c146 0 207-20 232-41h-464c25 21 86 41 232 41z m-250-125h208v-125h-208v125z m500-354c0-34-28-62-62-62h-375c-35 0-63 28-63 62v146h500v-146z m0 229h-208v125h208v-125z" horiz-adv-x="1000" />

<glyph glyph-name="twitter" unicode="&#xe863;" d="M841 710c32 11 62 27 93 49 15 10 33 10 47 1 15-10 22-27 18-44-13-59-44-114-83-158 1-7 1-14 1-20l0 0c0-255-123-441-298-535-175-93-398-92-598 19-16 9-25 29-19 48 5 18 22 31 41 30 71-3 140 11 203 40-62 39-107 85-139 134-41 66-57 136-60 199-3 63 7 119 18 160 5 20 10 36 14 48 3 6 4 11 6 14 0 1 1 3 1 4l1 1 0 0 0 0 0 0c0 0 0 0 38-17l-38 17c6 14 19 23 34 25 15 1 29-5 38-17 72-99 180-161 299-170 1 65 26 127 81 173 86 80 219 76 302-1z m-699-111c-8-33-14-76-12-122 3-52 15-107 48-158 32-51 85-100 172-139 14-6 24-20 25-35 1-15-6-30-19-38-46-31-97-55-149-70 132-34 264-18 372 40 148 78 254 236 254 461 0 6 0 11 0 14 0 1 0 2 0 2-7 16-4 34 8 46 10 10 19 20 27 31-9-3-18-6-28-9-15-4-32 1-43 14-51 61-145 67-202 13 0-1-1-1-2-2-35-29-51-67-51-109v-42c0-23-18-41-41-42-137-4-265 50-359 145z" horiz-adv-x="1000" />

<glyph glyph-name="utente-nonselezionato" unicode="&#xe864;" d="M500 767c-230 0-417-187-417-417 0-230 187-417 417-417 230 0 417 187 417 417 0 230-187 417-417 417z m-205-679c18 38 127 75 205 75 78 0 188-37 205-75-56-45-127-71-205-71-77 0-149 26-205 71z m470 61c-60 72-204 97-265 97-61 0-205-25-265-97-42 56-68 125-68 201 0 184 149 333 333 333 184 0 333-149 333-333 0-76-25-145-68-201z m-265 451c-81 0-146-65-146-146 0-81 65-146 146-146 81 0 146 65 146 146 0 81-65 146-146 146z m0-208c-35 0-62 28-62 62 0 35 27 63 62 63 35 0 63-28 63-63 0-34-28-62-63-62z" horiz-adv-x="1000" />

<glyph glyph-name="bandiera" unicode="&#xe866;" d="M246 618v-255c10 4 21 8 34 11 60 15 143 14 233-44 69-44 129-44 171-33 22 5 39 13 51 20 1 1 1 1 2 1v256c-10-4-21-8-34-11-60-15-143-14-233 43-69 45-129 44-171 34-22-6-39-14-51-20-1-1-2-1-2-2z m530 21c-25 31-24 31-24 31l0 0 0 0-1-1c0 0-1-1-3-2-3-2-7-5-13-8-12-7-29-15-51-20-42-11-102-12-171 33-90 58-173 59-233 44-30-8-54-19-71-28-8-5-14-9-19-12-2-2-4-3-6-4 0-1-1-1-1-2l-1 0 0 0 0 0 0 0c0 0 0 0 25-31l-25 31c-9-8-15-19-15-31v-615c0-22 18-39 40-39 21 0 39 17 39 39v253c0 0 1 0 2 1 12 6 29 15 51 20 42 10 102 11 171-33 90-58 173-59 233-44 30 7 54 19 70 28 9 5 15 9 20 12 2 2 4 3 5 4 1 1 2 1 2 1l1 1 0 0 0 0 0 0c0 0 0 0-25 30l25-30c9 8 14 19 14 30v342c0 15-8 29-22 36-14 6-30 4-41-5 0 0 0 0 0 0l24-31z" horiz-adv-x="1000" />

<glyph glyph-name="orari-treni" unicode="&#xe867;" d="M313 142c34 0 62 28 62 62 0 35-28 63-62 63-35 0-63-28-63-63 0-34 28-62 63-62z m291 0c35 0 63 28 63 62 0 35-28 63-63 63-34 0-62-28-62-63 0-34 28-62 62-62z m-15 577c-41 5-86 6-131 6-166 0-333-21-333-167v-395c0-81 65-146 146-146l-63-63v-21h84l83 84h167l83-84h83v21l-62 63c80 0 146 65 146 146v224c-12-2-25-4-38-4-20 0-40 3-58 9h-196v125h60c-9 23-14 48-14 75 0 3 0 5 0 8h-320c26 22 86 42 232 42 36 0 67-1 93-4 7 30 20 57 38 81z m-172-202h-209v-125h209v125z m229-417c34 0 62 28 62 63v145h-500v-145c0-35 28-63 63-63h375z m162 483l-35 20v74c0 5-2 9-5 12-3 3-7 5-12 5-4 0-8-2-11-5-4-3-5-7-5-12v-83c0-3 0-6 2-9 1-2 3-4 6-6l43-25c2-1 4-1 6-2 3 0 5 0 7 1 2 0 4 1 6 3 1 1 3 3 4 4 1 2 2 4 2 7 0 2 0 4 0 6-1 2-2 4-3 6-2 2-3 3-5 4z m-52 177c-33 0-65-9-92-28-28-18-49-44-62-74-12-31-16-64-9-97 6-32 22-62 45-85 24-23 53-39 86-46 32-6 66-3 96 10 31 12 57 34 75 61 18 28 28 60 28 93 0 44-18 86-49 118-31 31-74 48-118 48z m0-300c-26 0-52 8-74 23-22 15-39 35-49 60-10 24-13 51-7 77 5 26 17 49 36 68 19 19 42 31 68 37 26 5 53 2 77-8 25-10 46-27 60-49 15-22 23-48 23-74 0-36-14-69-39-94-25-25-59-39-95-40z m-96 278c29 19 62 29 96 29 46 0 90-19 123-51 32-32 50-76 50-122 0-34-10-68-29-96-19-29-46-51-78-64-31-13-66-16-99-10-34 7-65 23-89 48-24 24-41 55-47 88-7 34-4 68 10 100 13 32 35 59 63 78z m96 16c-31 0-62-9-89-27-26-17-47-42-59-72-12-29-15-61-9-92 6-32 21-60 44-83 22-22 51-37 82-44 31-6 63-3 93 10 29 12 54 32 72 59 17 26 27 57 27 89 0 42-17 83-47 113-30 30-71 47-114 47z m49-43c-23 10-49 12-73 7-25-4-48-17-66-34-17-18-29-41-34-65-5-25-3-51 7-74 10-23 26-43 47-57 21-14 45-21 70-21 34 0 66 13 90 37 24 24 37 56 37 90 0 25-7 50-21 70-14 21-34 38-57 47z m-76 20c27 5 55 2 81-8 25-11 47-29 62-52 16-23 24-50 24-77 0-37-15-73-41-99-26-26-62-41-99-41-27 0-54 8-77 24-23 15-41 37-52 62-10 26-13 54-8 81 6 27 19 52 39 72 19 19 44 32 71 38z m11-38c4 5 10 7 16 7 6 0 12-2 17-7 4-4 6-10 6-16v-70l32-18c3-2 5-4 7-6 2-3 3-5 4-8 1-3 1-6 0-9 0-3-1-6-3-9-1-2-3-5-5-6-3-2-6-4-8-4-3-1-6-1-9-1-3 0-6 1-9 3m0 0l-43 25c-4 2-7 5-9 8-2 4-3 8-3 12v83c0 6 3 12 7 16m16-5c-2 0-5-2-7-4-2-1-3-4-3-7v-83c0-2 0-4 1-5 1-2 3-3 4-4l43-25c2-1 3-1 4-2 2 0 3 0 4 1 2 0 3 1 4 2 1 0 2 1 3 3 0 1 1 2 1 3 0 2 0 3 0 4-1 2-1 3-2 4-1 1-2 2-3 3l-38 22v77c0 3-1 6-3 7-2 2-5 4-8 4z" horiz-adv-x="1000" />

<glyph glyph-name="pagamento-rifiutato" unicode="&#xe868;" d="M582 415c1 6 1 12 1 18 0 69-56 125-125 125-8 0-16 0-23-2l147-141z m-239 65c-6-14-10-30-10-47 0-69 56-125 125-125 19 0 37 4 52 12l-167 160z m484-463l-87 83h-490c-23 0-42-20-42-43 0-23 19-40 42-40h577z m84 83l63-60c16 15 26 37 26 60v417c0 23-17 41-40 41-23 0-43-18-43-41v-417h-6z m-107 103c18 15 29 38 29 64v333c0 46-37 83-83 83h-448l87-83h278c0-46 37-83 83-83v-167c-27 0-51-13-66-32l120-115z m-238 64l87-84h-486c-46 0-84 38-84 84v333c0 35 22 65 53 78l81-78h-50v-250c46 0 83-37 83-83h316z m289-375l-855 854 62 62 855-854-62-62z" horiz-adv-x="1000" />

<glyph glyph-name="stampa" unicode="&#xe869;" d="M208 767c0 23 19 41 42 41h500c23 0 42-18 42-41v-250h41c34 0 65-13 89-37 23-23 36-55 36-88v-209c0-33-13-65-36-88-24-23-55-37-89-37h-41v-125c0-23-19-41-42-41h-500c-23 0-42 18-42 41v125h-41c-33 0-65 14-89 37-23 23-36 55-36 88v209c0 33 13 65 36 88 24 24 56 37 89 37h41v250z m84-667c0 0 0 0 0 0 0 0 0 0 0 0v125h416v-250h-416v125z m-84 42h-41c-11 0-22 4-30 12-8 8-12 18-12 29v209c0 11 4 21 12 29 8 8 19 12 30 12h83 500 83c11 0 22-4 30-12 8-8 12-18 12-29v-209c0-11-4-21-12-29-8-8-19-12-30-12h-41v125c0 23-19 41-42 41h-500c-23 0-42-18-42-41v-125z m500 583v-208h-416v208h416z" horiz-adv-x="1000" />

<glyph glyph-name="tratta" unicode="&#xe86a;" d="M403-25c-45 0-83 16-114 47-32 32-47 70-47 115v363c-25 9-45 23-60 43-16 20-24 42-24 67 0 32 12 59 34 82 23 22 50 33 82 33 31 0 58-11 80-33 22-23 34-50 34-82 0-25-8-47-24-67-16-20-35-34-60-43v-363c0-28 10-51 29-70 19-20 43-29 71-29 28 0 51 9 70 29 19 19 28 42 28 70v427c0 45 16 83 47 114 31 31 69 47 115 47 45 0 83-16 114-47 31-31 47-69 47-114v-364c24-9 44-23 60-43 16-20 23-42 23-67 0-32-11-59-33-81-22-23-49-34-81-34-31 0-58 11-81 34-23 22-34 49-34 81 0 25 8 47 24 67 15 20 35 35 60 43v364c0 27-10 51-29 70-19 19-43 29-70 29-28 0-52-10-71-29-19-19-28-43-28-70v-427c0-45-16-83-47-115-32-31-70-47-115-47z m-129 583c14 0 26 6 36 16 10 10 15 23 15 38 0 13-5 25-15 35-10 11-22 16-37 16-14 0-26-5-37-16-10-10-15-22-15-37 0-13 5-26 15-36 11-10 23-16 38-16z m521-520c14 0 26 5 36 15 10 11 15 23 15 38 0 14-5 26-15 36-10 10-23 15-37 15-14 0-26-5-37-15-10-10-15-23-15-37 0-14 5-26 15-37 11-10 23-15 38-15z m-392-71c-47 0-88 16-120 50-33 33-50 73-50 120v357c-23 10-42 25-58 44-17 21-25 46-25 72 0 35 12 64 36 88 25 23 54 35 88 35 33 0 62-12 86-35 24-24 36-53 36-88 0-26-9-51-25-72-16-19-35-34-58-44v-357c0-25 8-47 26-64 17-18 39-27 65-27 26 0 47 9 64 27 17 17 26 39 26 64v427c0 47 16 87 49 120 33 33 73 49 121 49 47 0 87-16 120-49 33-33 49-73 49-120v-358c24-10 43-24 58-44 17-21 26-45 26-72 0-34-12-63-36-87-24-24-53-36-87-36-34 0-63 12-87 36-24 24-36 53-36 87 0 27 8 51 25 72 15 20 35 35 58 44v358c0 25-9 47-26 64-17 18-39 26-64 26-26 0-47-8-65-26-17-17-26-39-26-64v-427c0-47-17-87-49-120-33-34-74-50-121-50z m360 233c-25-8-45-23-60-43-16-20-24-42-24-67 0-32 11-59 34-81 23-23 50-34 81-34 32 0 59 11 81 34 22 22 33 49 33 81 0 25-7 47-23 67-16 20-36 34-60 43v364c0 45-16 83-47 114-31 31-69 47-114 47-46 0-84-16-115-47-31-31-47-69-47-114v-427c0-28-9-51-28-70-19-20-42-29-70-29-28 0-52 9-71 29-19 19-29 42-29 70v363c25 9 44 23 60 43 16 20 24 42 24 67 0 32-12 60-34 82-22 22-49 33-80 33-32 0-59-11-82-33-22-22-34-50-34-82 0-25 8-47 24-67 15-20 35-34 60-43v-363c0-45 15-83 47-115 31-31 69-47 114-47 45 0 83 16 115 47 31 32 47 70 47 115v427c0 27 9 51 28 70 19 19 43 29 71 29 27 0 51-10 70-29 19-19 29-43 29-70v-364z m-489 367c12 0 21 4 30 13 8 9 13 19 13 32 0 11-4 21-13 30-8 8-19 12-31 12-12 0-22-4-31-13-8-8-13-18-13-31 0-11 4-21 13-30 9-9 20-13 32-13z m521-521c11 0 21 4 30 13 8 9 13 19 13 32 0 11-5 21-13 30-9 8-19 12-31 12-12 0-22-4-31-12-9-9-13-19-13-31 0-12 4-22 13-31 9-9 19-13 32-13z m-485 528c-10-10-22-16-36-16-15 0-27 6-38 16-10 10-15 23-15 36 0 15 5 27 15 37 11 11 23 16 37 16 15 0 27-5 37-16 10-10 15-22 15-35 0-15-5-28-15-38z m521-521c-10-10-22-15-36-15-15 0-27 5-38 15-10 11-15 23-15 37 0 14 5 27 15 37 11 10 23 15 37 15 14 0 27-5 37-15 10-10 15-22 15-36 0-15-5-27-15-38z" horiz-adv-x="1042" />

<glyph glyph-name="rating-half" unicode="&#xe86b;" d="M522 763c1 0 3 0 4 0 1 0 1 0 2 0 1 0 1-1 2-1 5-1 10-3 15-6 7-4 12-10 16-17l0 0 111-225 247-36c8-1 16-4 23-9 7-5 12-12 14-20 2-8 2-17 0-25-3-7-7-14-14-20l0 0-179-174 43-247c2-8 1-16-2-24-3-8-8-14-15-19-8-6-17-9-26-8-7-1-14 1-20 5l0 0-221 116-223-116c-7-4-15-5-23-5l0 0c-8 1-16 4-23 8-6 5-12 12-15 19-3 8-4 17-2 25l43 247-179 174c-6 5-10 12-12 20-2 8-1 16 1 23 2 8 7 15 13 20 7 5 14 9 22 10l248 36 110 225c4 7 9 13 16 17 7 5 15 7 24 7z m8-160l0-458c5 0 10-2 14-4l0 0 164-87-32 182c-1 7 0 14 2 21 2 7 6 13 11 18l0 0 130 130-183 26c-7 1-13 4-19 8-6 4-11 10-14 16l0 0-73 148z" horiz-adv-x="1043" />

<glyph glyph-name="affiliazione" unicode="&#xe870;" d="M892 367l-375 375c-13 16-34 25-59 25h-291c-46 0-84-38-84-84v-291c0-25 9-46 25-59l375-375c17-16 38-25 59-25 21 0 46 9 58 25l292 292c16 17 25 38 25 58 0 21-9 46-25 59z m-350-350l-375 375v291h291l375-375-291-291z m-271 500c34 0 62 28 62 62 0 35-28 63-62 63-35 0-63-28-63-63 0-34 28-62 63-62z m100-192c0-25 8-46 25-58l146-146 146 146c16 16 25 37 25 58 0 46-38 88-88 88-25 0-46-9-58-25l-25-25-25 25c-17 16-38 25-59 25-50 0-87-38-87-88z" horiz-adv-x="1000" />

<glyph glyph-name="percorso" unicode="&#xe8d7;" d="M436 399c21 0 38-16 38-37 0-21-17-38-38-38l-133 0c-43 0-78-35-78-77 0-43 35-78 78-78l427 0c84 0 152-68 152-152 0-83-68-151-152-151l-350 0c-21 0-38 16-38 37 0 21 17 38 38 38l350 0c42 0 77 35 77 77 0 43-35 78-77 78l-427 0c-84 0-153 68-153 152 0 83 69 151 153 151l133 0z m245 451c126 0 228-102 228-227 0-21-6-47-15-75-9-28-22-60-37-92-30-66-69-137-104-197-15-26-42-42-72-42-30 0-56 16-72 41l0 1c-35 60-74 131-104 197-15 32-28 64-37 92-9 28-15 54-15 75 0 125 101 227 228 227z m0-63c-90 0-164-74-164-164 0-49 53-172 148-333 5-8 13-9 16-9 3 0 11 0 16 9 94 162 148 284 148 333 0 90-74 164-164 164z m0-65c55 0 99-44 99-99 0-54-44-99-99-99-55 0-99 45-99 99 0 55 44 99 99 99z m1-50c-27 0-50-22-50-49 0-27 22-49 50-49 27 0 50 22 50 49 0 27-23 49-50 49z" horiz-adv-x="1000" />
</font>
</defs>
</svg>
